Mine 9 (2019)

Not Rated | 1h 23min | Drama | 8 March 2019 (USA)

Two miles into the earth, nine Appalachian miners struggle to survive after a methane explosion leaves them with one hour of oxygen.

Watch trailer

Media information

General
Format : Matroska
Format version : Version 4
File size : 1.70 GiB
Duration : 1 h 22 min
Overall bit rate : 2 933 kb/s
Movie name : Mine.9.2019.1080p.10bit.BluRay.6CH.x265.HEVC
Encoded date : UTC 2020-01-09 09:21:10
Writing application : mkvmerge v42.0.0 (‘Overtime’) 32-bit
Writing library : libebml v1.3.10 + libmatroska v1.5.2

Video
ID : 1
Format : HEVC
Format/Info : High Efficiency Video Coding
Format profile : Main 10@L4@Main
Codec ID : V_MPEGH/ISO/HEVC
Duration : 1 h 22 min
Bit rate : 2 738 kb/s
Width : 1 920 pixels
Height : 1 080 pixels
Display aspect ratio : 16:9
Frame rate mode : Constant
Frame rate : 23.976 (24000/1001) FPS
Color space : YUV
Chroma subsampling : 4:2:0
Bit depth : 10 bits
Bits/(Pixel*Frame) : 0.055
Stream size : 1.58 GiB (93%)
Default : Yes
Forced : No

Audio
ID : 2
Format : AAC LC SBR
Commercial name : HE-AAC
Format settings : Explicit
Codec ID : A_AAC-2
Duration : 1 h 22 min
Bit rate : 192 kb/s
Channel(s) : 6 channels
Channel layout : C L R Ls Rs LFE
Sampling rate : 48.0 kHz
Frame rate : 23.438 FPS (2048 SPF)
Compression mode : Lossy
Delay relative to video : 23 ms
Stream size : 114 MiB (7%)
Language : English
Default : Yes
Forced : No

Text
ID : 3
Format : UTF-8
Codec ID : S_TEXT/UTF8
Codec ID/Info : UTF-8 Plain Text
Duration : 1 h 22 min
Bit rate : 53 b/s
Count of elements : 1166
Stream size : 31.9 KiB (0%)
Language : English
Default : Yes
Forced : No

[collapse]
Download Link(s)

Download

Direct download files get automatically deleted after a month or so. Posted on : 01/09/2020

[collapse]
Magnet Link

Magnet

Mine.9.2019.1080p.BluRay.REMUX.AVC.DD5.1-FGT-18.97 GB

[collapse]

Media information

General
Format : Matroska
Format version : Version 4
File size : 744 MiB
Duration : 1 h 22 min
Overall bit rate : 1 257 kb/s
Movie name : Mine.9.2019.720p.10bit.BluRay.6CH.x265.HEVC
Encoded date : UTC 2020-01-09 09:18:14
Writing application : mkvmerge v42.0.0 (‘Overtime’) 32-bit
Writing library : libebml v1.3.10 + libmatroska v1.5.2

Video
ID : 1
Format : HEVC
Format/Info : High Efficiency Video Coding
Format profile : Main [email protected]@Main
Codec ID : V_MPEGH/ISO/HEVC
Duration : 1 h 22 min
Bit rate : 1 062 kb/s
Width : 1 280 pixels
Height : 720 pixels
Display aspect ratio : 16:9
Frame rate mode : Constant
Frame rate : 23.976 (24000/1001) FPS
Color space : YUV
Chroma subsampling : 4:2:0
Bit depth : 10 bits
Bits/(Pixel*Frame) : 0.048
Stream size : 629 MiB (84%)
Default : Yes
Forced : No

Audio
ID : 2
Format : AAC LC SBR
Commercial name : HE-AAC
Format settings : Explicit
Codec ID : A_AAC-2
Duration : 1 h 22 min
Bit rate : 192 kb/s
Channel(s) : 6 channels
Channel layout : C L R Ls Rs LFE
Sampling rate : 48.0 kHz
Frame rate : 23.438 FPS (2048 SPF)
Compression mode : Lossy
Delay relative to video : 23 ms
Stream size : 114 MiB (15%)
Language : English
Default : Yes
Forced : No

Text
ID : 3
Format : UTF-8
Codec ID : S_TEXT/UTF8
Codec ID/Info : UTF-8 Plain Text
Duration : 1 h 22 min
Bit rate : 53 b/s
Count of elements : 1166
Stream size : 31.9 KiB (0%)
Language : English
Default : Yes
Forced : No

[collapse]
Download Link(s)

Download

Direct download files get automatically deleted after a month or so. Posted on : 01/09/2020

[collapse]
Magnet Link

Magnet

Mine.9.2019.1080p.BluRay.REMUX.AVC.DD5.1-FGT-18.97 GB

[collapse]

You may also like...

error: nah :p~