Maze Runner: The Death Cure (2018)

PG-13 | 2h 23min | Action, Adventure, Sci-Fi

Young hero Thomas embarks on a mission to find a cure for a deadly disease known as “The Flare”.

Watch trailer

Media information

General
Format : Matroska
Format version : Version 4
File size : 2.57 GiB
Duration : 2 h 23 min
Overall bit rate : 2 556 kb/s
Frame rate : 23.976 FPS
Movie name : Maze.Runner.The.Death.Cure.2018.1080p.10bit.BluRay.8CH.x265.HEVC

Video
ID : 1
Format : HEVC
Format/Info : High Efficiency Video Coding
Format profile : Main 10@L4@Main
Codec ID : V_MPEGH/ISO/HEVC
Duration : 2 h 23 min
Bit rate : 2 169 kb/s
Width : 1 920 pixels
Height : 804 pixels
Display aspect ratio : 2.39:1
Frame rate mode : Constant
Frame rate : 23.976 (24000/1001) FPS
Color space : YUV
Chroma subsampling : 4:2:0 (Type 0)
Bit depth : 10 bits
Bits/(Pixel*Frame) : 0.059
Stream size : 2.18 GiB (85%)
Default : Yes
Forced : No
Color range : Limited

Audio
ID : 2
Format : AAC LC
Codec ID : A_AAC-2
Duration : 2 h 23 min
Bit rate : 384 kb/s
Channel(s) : 8 channels
Channel layout : C L R Ls Rs Lw Rw LFE
Sampling rate : 48.0 kHz
Frame rate : 46.875 FPS (1024 SPF)
Compression mode : Lossy
Delay relative to video : 20 ms
Stream size : 396 MiB (15%)
Language : English
Default : Yes
Forced : No

Text
ID : 3
Format : UTF-8
Codec ID : S_TEXT/UTF8
Codec ID/Info : UTF-8 Plain Text
Duration : 2 h 15 min
Bit rate : 40 b/s
Frame rate : 0.207 FPS
Count of elements : 1683
Stream size : 40.1 KiB (0%)
Language : English
Default : Yes
Forced : No

[collapse]
Download Link(s)

Download

Direct download files get automatically deleted after a month or so. Posted on : 02/10/2024

[collapse]
Magnet Link

Magnet

Maze.Runner.The.Death.Cure.2018.1080p.BluRay.AVC.DTS-HD.MA.7.1-FGT-42.58 GB

[collapse]

Media information

General
Format : Matroska
Format version : Version 4
File size : 1.25 GiB
Duration : 2 h 23 min
Overall bit rate : 1 244 kb/s
Frame rate : 23.976 FPS
Movie name : Maze.Runner.The.Death.Cure.2018.720p.10bit.BluRay.8CH.x265.HEVC

Video
ID : 1
Format : HEVC
Format/Info : High Efficiency Video Coding
Format profile : Main [email protected]@Main
Codec ID : V_MPEGH/ISO/HEVC
Duration : 2 h 23 min
Bit rate : 985 kb/s
Width : 1 280 pixels
Height : 536 pixels
Display aspect ratio : 2.39:1
Frame rate mode : Constant
Frame rate : 23.976 (24000/1001) FPS
Color space : YUV
Chroma subsampling : 4:2:0 (Type 0)
Bit depth : 10 bits
Bits/(Pixel*Frame) : 0.060
Stream size : 1 014 MiB (79%)
Default : Yes
Forced : No
Color range : Limited

Audio
ID : 2
Format : AAC LC
Codec ID : A_AAC-2
Duration : 2 h 23 min
Bit rate : 257 kb/s
Channel(s) : 8 channels
Channel layout : C L R Ls Rs Lw Rw LFE
Sampling rate : 48.0 kHz
Frame rate : 46.875 FPS (1024 SPF)
Compression mode : Lossy
Delay relative to video : 20 ms
Stream size : 264 MiB (21%)
Language : English
Default : Yes
Forced : No

Text
ID : 3
Format : UTF-8
Codec ID : S_TEXT/UTF8
Codec ID/Info : UTF-8 Plain Text
Duration : 2 h 15 min
Bit rate : 40 b/s
Frame rate : 0.207 FPS
Count of elements : 1683
Stream size : 40.1 KiB (0%)
Language : English
Default : Yes
Forced : No

[collapse]
Download Link(s)

Download

Direct download files get automatically deleted after a month or so. Posted on : 02/10/2024

[collapse]
Magnet Link

Magnet

Maze.Runner.The.Death.Cure.2018.1080p.BluRay.AVC.DTS-HD.MA.7.1-FGT-42.58 GB

[collapse]

You may also like...

error: nah :p~