Max Payne (2008)

PG-13 | 1h 40min | Action, Crime, Drama

Coming together to solve a series of murders in New York City are a police detective and an assassin, who will be hunted by the police, the mob, and a ruthless corporation.

Watch trailer

Media information

General
Format : Matroska
Format version : Version 4
File size : 1.66 GiB
Duration : 1 h 42 min
Overall bit rate : 2 311 kb/s
Frame rate : 23.976 FPS
Movie name : Max.Payne.2008.UNRATED.1080p.10bit.BluRay.6CH.x265.HEVC

Video
ID : 1
Format : HEVC
Format/Info : High Efficiency Video Coding
Format profile : Main 10@L4@Main
Codec ID : V_MPEGH/ISO/HEVC
Duration : 1 h 42 min
Bit rate : 2 092 kb/s
Width : 1 920 pixels
Height : 800 pixels
Display aspect ratio : 2.40:1
Frame rate mode : Constant
Frame rate : 23.976 (24000/1001) FPS
Color space : YUV
Chroma subsampling : 4:2:0
Bit depth : 10 bits
Bits/(Pixel*Frame) : 0.057
Stream size : 1.50 GiB (91%)
Default : Yes
Forced : No

Audio
ID : 2
Format : AAC LC SBR
Commercial name : HE-AAC
Format settings : Explicit
Codec ID : A_AAC-2
Duration : 1 h 42 min
Bit rate : 216 kb/s
Channel(s) : 6 channels
Channel layout : C L R Ls Rs LFE
Sampling rate : 48.0 kHz
Frame rate : 23.438 FPS (2048 SPF)
Compression mode : Lossy
Delay relative to video : 13 ms
Stream size : 159 MiB (9%)
Language : English
Default : Yes
Forced : No

Text
ID : 3
Format : UTF-8
Codec ID : S_TEXT/UTF8
Codec ID/Info : UTF-8 Plain Text
Duration : 1 h 41 min
Bit rate : 35 b/s
Frame rate : 0.130 FPS
Count of elements : 794
Stream size : 26.2 KiB (0%)
Language : English
Default : Yes
Forced : No

[collapse]
Download Link(s)

Download

Direct download files get automatically deleted after a month or so. Posted on : 02/25/2024

[collapse]
Magnet Link

Magnet

Max.Payne.2008.UNRATED.1080p.10bit.BluRay.6CH.x265.HEVC-PSA-1.66 GB

[collapse]

Media information

General
Format : Matroska
Format version : Version 4
File size : 838 MiB
Duration : 1 h 42 min
Overall bit rate : 1 137 kb/s
Frame rate : 23.976 FPS
Movie name : Max.Payne.2008.UNRATED.720p.10bit.BluRay.6CH.x265.HEVC

Video
ID : 1
Format : HEVC
Format/Info : High Efficiency Video Coding
Format profile : Main [email protected]@Main
Codec ID : V_MPEGH/ISO/HEVC
Duration : 1 h 42 min
Bit rate : 919 kb/s
Width : 1 280 pixels
Height : 536 pixels
Display aspect ratio : 2.39:1
Frame rate mode : Constant
Frame rate : 23.976 (24000/1001) FPS
Color space : YUV
Chroma subsampling : 4:2:0
Bit depth : 10 bits
Bits/(Pixel*Frame) : 0.056
Stream size : 677 MiB (81%)
Default : Yes
Forced : No

Audio
ID : 2
Format : AAC LC SBR
Commercial name : HE-AAC
Format settings : Explicit
Codec ID : A_AAC-2
Duration : 1 h 42 min
Bit rate : 216 kb/s
Channel(s) : 6 channels
Channel layout : C L R Ls Rs LFE
Sampling rate : 48.0 kHz
Frame rate : 23.438 FPS (2048 SPF)
Compression mode : Lossy
Delay relative to video : 13 ms
Stream size : 159 MiB (19%)
Language : English
Default : Yes
Forced : No

Text
ID : 3
Format : UTF-8
Codec ID : S_TEXT/UTF8
Codec ID/Info : UTF-8 Plain Text
Duration : 1 h 41 min
Bit rate : 35 b/s
Frame rate : 0.130 FPS
Count of elements : 794
Stream size : 26.2 KiB (0%)
Language : English
Default : Yes
Forced : No

[collapse]
Download Link(s)

Download

Direct download files get automatically deleted after a month or so. Posted on : 02/25/2024

[collapse]
Magnet Link

Magnet

Max.Payne.2008.UNRATED.1080p.10bit.BluRay.6CH.x265.HEVC-PSA-1.66 GB

[collapse]

You may also like...

error: nah :p~