M3GAN (2022)

PG-13 | 1h 42min | Horror, Sci-Fi, Thriller

A robotics engineer at a toy company builds a life-like doll that begins to take on a life of its own.

Watch trailer

Media information

General
Format : Matroska
Format version : Version 4
File size : 2.44 GiB
Duration : 1 h 41 min
Overall bit rate : 3 423 kb/s
Movie name : M3GAN.2022.2160p.10bit.HDR.DV.WEBRip.6CH.x265.HEVC

Video
ID : 1
Format : HEVC
Format/Info : High Efficiency Video Coding
Format profile : Main [email protected]@Main
HDR format : Dolby Vision, Version 1.0, dvhe.08.06, BL+RPU, HDR10 compatible / SMPTE ST 2086, HDR10 compatible
Codec ID : V_MPEGH/ISO/HEVC
Duration : 1 h 41 min
Bit rate : 3 215 kb/s
Width : 3 840 pixels
Height : 1 608 pixels
Display aspect ratio : 2.40:1
Frame rate mode : Constant
Frame rate : 23.976 (24000/1001) FPS
Color space : YUV
Chroma subsampling : 4:2:0 (Type 2)
Bit depth : 10 bits
Bits/(Pixel*Frame) : 0.022
Stream size : 2.29 GiB (94%)
Default : Yes
Forced : No
Color range : Limited
Color primaries : BT.2020
Transfer characteristics : PQ
Matrix coefficients : BT.2020 non-constant
Mastering display color primaries : BT.2020
Mastering display luminance : min: 0.0500 cd/m2, max: 1000 cd/m2
Maximum Content Light Level : 629 cd/m2
Maximum Frame-Average Light Level : 164 cd/m2

Audio
ID : 2
Format : AAC LC SBR
Commercial name : HE-AAC
Format settings : Explicit
Codec ID : A_AAC-2
Duration : 1 h 41 min
Bit rate : 206 kb/s
Channel(s) : 6 channels
Channel layout : C L R Ls Rs LFE
Sampling rate : 48.0 kHz
Frame rate : 23.438 FPS (2048 SPF)
Compression mode : Lossy
Delay relative to video : 23 ms
Stream size : 150 MiB (6%)
Language : English
Default : Yes
Forced : No

Text #1
ID : 3
Format : UTF-8
Codec ID : S_TEXT/UTF8
Codec ID/Info : UTF-8 Plain Text
Duration : 1 h 41 min
Bit rate : 69 b/s
Frame rate : 0.271 FPS
Count of elements : 1648
Stream size : 51.5 KiB (0%)
Language : English
Default : No
Forced : No

Text #2
ID : 4
Format : UTF-8
Codec ID : S_TEXT/UTF8
Codec ID/Info : UTF-8 Plain Text
Duration : 1 h 41 min
Bit rate : 76 b/s
Frame rate : 0.306 FPS
Count of elements : 1870
Stream size : 57.4 KiB (0%)
Title : SDH
Language : English
Default : Yes
Forced : No

[collapse]

Download Link(s)

Download

Direct download files get automatically deleted after a month or so. Posted on : 01/25/2023

[collapse]

Magnet Link

Magnet

M3GAN.2023.2160p.MA.WEB-DL.x265.10bit.HDR.DDP5.1.Atmos-CM-17.85 GB

[collapse]


Media information

General
Format : Matroska
Format version : Version 4
File size : 1.30 GiB
Duration : 1 h 42 min
Overall bit rate : 1 828 kb/s
Movie name : M3GAN.2022.1080p.10bit.WEBRip.6CH.x265.HEVC

Video
ID : 1
Format : HEVC
Format/Info : High Efficiency Video Coding
Format profile : Main [email protected]@Main
Codec ID : V_MPEGH/ISO/HEVC
Duration : 1 h 42 min
Bit rate : 1 617 kb/s
Width : 1 920 pixels
Height : 800 pixels
Display aspect ratio : 2.40:1
Frame rate mode : Constant
Frame rate : 23.976 (24000/1001) FPS
Color space : YUV
Chroma subsampling : 4:2:0
Bit depth : 10 bits
Bits/(Pixel*Frame) : 0.044
Stream size : 1.15 GiB (88%)
Default : Yes
Forced : No
Color range : Limited
Color primaries : BT.709
Transfer characteristics : BT.709
Matrix coefficients : BT.709

Audio
ID : 2
Format : AAC LC SBR
Commercial name : HE-AAC
Format settings : Explicit
Codec ID : A_AAC-2
Duration : 1 h 42 min
Bit rate : 208 kb/s
Channel(s) : 6 channels
Channel layout : C L R Ls Rs LFE
Sampling rate : 48.0 kHz
Frame rate : 23.438 FPS (2048 SPF)
Compression mode : Lossy
Delay relative to video : 23 ms
Stream size : 152 MiB (11%)
Language : English
Default : Yes
Forced : No

Text #1
ID : 3
Format : UTF-8
Codec ID : S_TEXT/UTF8
Codec ID/Info : UTF-8 Plain Text
Duration : 1 h 32 min
Bit rate : 73 b/s
Frame rate : 0.242 FPS
Count of elements : 1342
Stream size : 49.8 KiB (0%)
Language : English
Default : No
Forced : No

Text #2
ID : 4
Format : UTF-8
Codec ID : S_TEXT/UTF8
Codec ID/Info : UTF-8 Plain Text
Duration : 1 h 32 min
Bit rate : 80 b/s
Frame rate : 0.268 FPS
Count of elements : 1490
Stream size : 54.5 KiB (0%)
Title : SDH
Language : English
Default : Yes
Forced : No

Text #3
ID : 5
Format : UTF-8
Codec ID : S_TEXT/UTF8
Codec ID/Info : UTF-8 Plain Text
Duration : 1 h 40 min
Bit rate : 64 b/s
Frame rate : 0.226 FPS
Count of elements : 1370
Stream size : 47.7 KiB (0%)
Language : French
Default : No
Forced : No

[collapse]

Download Link(s)

Download

Direct download files get automatically deleted after a month or so. Posted on : 01/24/2023

[collapse]

Magnet Link

Magnet

M3GAN.2022.1080p.WEB.H264-NAISU-5.73 GB

[collapse]


Media information

General
Format : Matroska
Format version : Version 4
File size : 656 MiB
Duration : 1 h 42 min
Overall bit rate : 898 kb/s
Movie name : M3GAN.2022.720p.10bit.WEBRip.6CH.x265.HEVC

Video
ID : 1
Format : HEVC
Format/Info : High Efficiency Video Coding
Format profile : Main [email protected]@Main
Codec ID : V_MPEGH/ISO/HEVC
Duration : 1 h 42 min
Bit rate : 688 kb/s
Width : 1 280 pixels
Height : 536 pixels
Display aspect ratio : 2.40:1
Frame rate mode : Constant
Frame rate : 23.976 (24000/1001) FPS
Color space : YUV
Chroma subsampling : 4:2:0
Bit depth : 10 bits
Bits/(Pixel*Frame) : 0.042
Stream size : 502 MiB (77%)
Default : Yes
Forced : No
Color range : Limited
Color primaries : BT.709
Transfer characteristics : BT.709
Matrix coefficients : BT.709

Audio
ID : 2
Format : AAC LC SBR
Commercial name : HE-AAC
Format settings : Explicit
Codec ID : A_AAC-2
Duration : 1 h 42 min
Bit rate : 208 kb/s
Channel(s) : 6 channels
Channel layout : C L R Ls Rs LFE
Sampling rate : 48.0 kHz
Frame rate : 23.438 FPS (2048 SPF)
Compression mode : Lossy
Delay relative to video : 23 ms
Stream size : 152 MiB (23%)
Language : English
Default : Yes
Forced : No

Text #1
ID : 3
Format : UTF-8
Codec ID : S_TEXT/UTF8
Codec ID/Info : UTF-8 Plain Text
Duration : 1 h 32 min
Bit rate : 73 b/s
Frame rate : 0.242 FPS
Count of elements : 1342
Stream size : 49.8 KiB (0%)
Language : English
Default : No
Forced : No

Text #2
ID : 4
Format : UTF-8
Codec ID : S_TEXT/UTF8
Codec ID/Info : UTF-8 Plain Text
Duration : 1 h 32 min
Bit rate : 80 b/s
Frame rate : 0.268 FPS
Count of elements : 1490
Stream size : 54.5 KiB (0%)
Title : SDH
Language : English
Default : Yes
Forced : No

Text #3
ID : 5
Format : UTF-8
Codec ID : S_TEXT/UTF8
Codec ID/Info : UTF-8 Plain Text
Duration : 1 h 40 min
Bit rate : 64 b/s
Frame rate : 0.226 FPS
Count of elements : 1370
Stream size : 47.7 KiB (0%)
Language : French
Default : No
Forced : No

[collapse]

Download Link(s)

Download

Direct download files get automatically deleted after a month or so. Posted on : 01/24/2023

[collapse]

Magnet Link

Magnet

M3GAN.2022.1080p.WEB.H264-NAISU-5.73 GB

[collapse]

You may also like...

error: nah :p~