Love, Weddings & Other Disasters (2020)

PG-13 | 1h 30min | Comedy, Romance | 4 December 2020 (USA)

It is a multi-story romantic comedy about the people who work on weddings to create the perfect day for a loving couple – while their own relationships are outlandish, odd, crazy and far from perfect.

Watch trailer

Media information

General
Format : Matroska
Format version : Version 4
File size : 718 MiB
Duration : 1 h 36 min
Overall bit rate : 1 039 kb/s
Movie name : Love.Weddings.and.Other.Disasters.2020.720p.WEBRip.2CH.x265.HEVC

Video
ID : 1
Format : HEVC
Format/Info : High Efficiency Video Coding
Format profile : [email protected]@Main
Codec ID : V_MPEGH/ISO/HEVC
Duration : 1 h 36 min
Bit rate : 973 kb/s
Width : 1 280 pixels
Height : 688 pixels
Display aspect ratio : 1.85:1
Frame rate mode : Constant
Frame rate : 23.976 (24000/1001) FPS
Color space : YUV
Chroma subsampling : 4:2:0
Bit depth : 8 bits
Bits/(Pixel*Frame) : 0.046
Stream size : 672 MiB (94%)
Default : Yes
Forced : No
Color range : Limited
Color primaries : BT.709
Transfer characteristics : BT.709
Matrix coefficients : BT.709

Audio
ID : 2
Format : AAC LC SBR
Commercial name : HE-AAC
Format settings : Explicit
Codec ID : A_AAC-2
Duration : 1 h 36 min
Bit rate : 64.0 kb/s
Channel(s) : 2 channels
Channel layout : L R
Sampling rate : 48.0 kHz
Frame rate : 23.438 FPS (2048 SPF)
Compression mode : Lossy
Delay relative to video : 23 ms
Stream size : 44.2 MiB (6%)
Language : English
Default : Yes
Forced : No

Text
ID : 3
Format : UTF-8
Codec ID : S_TEXT/UTF8
Codec ID/Info : UTF-8 Plain Text
Duration : 1 h 30 min
Bit rate : 90 b/s
Count of elements : 1994
Stream size : 60.1 KiB (0%)
Language : English
Default : Yes
Forced : No

[collapse]
Download Link(s)

Download

Direct download files get automatically deleted after a month or so. Posted on : 12/05/2020

[collapse]
Magnet Link

Magnet

Love.Weddings.and.Other.Disasters.2020.1080p.WEB-DL.DD5.1.H264-FGT-3.78 GB

[collapse]

You may also like...

error: nah :p~