Love Actually (2003)

R | 2h 15min | Comedy, Drama, Romance

Follows the lives of eight very different couples in dealing with their love lives in various loosely interrelated tales all set during a frantic month before Christmas in London, England.

Watch trailer

Media information

General
Format : Matroska
Format version : Version 4
File size : 2.31 GiB
Duration : 2 h 14 min
Overall bit rate : 2 450 kb/s
Movie name : Love.Actually.2003.1080p.10bit.BluRay.6CH.x265.HEVC

Video
ID : 1
Format : HEVC
Format/Info : High Efficiency Video Coding
Format profile : Main 10@L4@Main
Codec ID : V_MPEGH/ISO/HEVC
Duration : 2 h 14 min
Bit rate : 2 159 kb/s
Width : 1 920 pixels
Height : 816 pixels
Display aspect ratio : 2.35:1
Frame rate mode : Constant
Frame rate : 23.976 FPS
Color space : YUV
Chroma subsampling : 4:2:0 (Type 0)
Bit depth : 10 bits
Bits/(Pixel*Frame) : 0.057
Stream size : 2.03 GiB (88%)
Default : Yes
Forced : No
Color range : Limited

Audio
ID : 2
Format : AAC LC
Codec ID : A_AAC-2
Duration : 2 h 14 min
Bit rate : 288 kb/s
Channel(s) : 6 channels
Channel layout : L R C Cb Lb Rb
Sampling rate : 48.0 kHz
Frame rate : 46.875 FPS (1024 SPF)
Compression mode : Lossy
Stream size : 278 MiB (12%)
Language : English
Default : Yes
Forced : No

Text
ID : 3
Format : UTF-8
Codec ID : S_TEXT/UTF8
Codec ID/Info : UTF-8 Plain Text
Duration : 2 h 13 min
Bit rate : 53 b/s
Frame rate : 0.212 FPS
Count of elements : 1698
Stream size : 52.2 KiB (0%)
Language : English
Default : Yes
Forced : No

[collapse]
Download Link(s)

Download

Direct download files get automatically deleted after a month or so. Posted on : 11/09/2022

[collapse]
Magnet Link

Magnet

Love.Actually.2003.1080p.BluRay.x264-FHD-9.51 GB

[collapse]

Media information

General
Format : Matroska
Format version : Version 4
File size : 1.14 GiB
Duration : 2 h 14 min
Overall bit rate : 1 212 kb/s
Movie name : Love.Actually.2003.720p.10bit.BluRay.6CH.x265.HEVC

Video
ID : 1
Format : HEVC
Format/Info : High Efficiency Video Coding
Format profile : Main [email protected]@Main
Codec ID : V_MPEGH/ISO/HEVC
Duration : 2 h 14 min
Bit rate : 1 017 kb/s
Width : 1 280 pixels
Height : 544 pixels
Display aspect ratio : 2.35:1
Frame rate mode : Constant
Frame rate : 23.976 FPS
Color space : YUV
Chroma subsampling : 4:2:0 (Type 0)
Bit depth : 10 bits
Bits/(Pixel*Frame) : 0.061
Stream size : 981 MiB (84%)
Default : Yes
Forced : No
Color range : Limited

Audio
ID : 2
Format : AAC LC
Codec ID : A_AAC-2
Duration : 2 h 14 min
Bit rate : 192 kb/s
Channel(s) : 6 channels
Channel layout : L R C Cb Lb Rb
Sampling rate : 48.0 kHz
Frame rate : 46.875 FPS (1024 SPF)
Compression mode : Lossy
Stream size : 186 MiB (16%)
Language : English
Default : Yes
Forced : No

Text
ID : 3
Format : UTF-8
Codec ID : S_TEXT/UTF8
Codec ID/Info : UTF-8 Plain Text
Duration : 2 h 13 min
Bit rate : 53 b/s
Frame rate : 0.212 FPS
Count of elements : 1698
Stream size : 52.2 KiB (0%)
Language : English
Default : Yes
Forced : No

[collapse]
Download Link(s)

Download

Direct download files get automatically deleted after a month or so. Posted on : 11/09/2022

[collapse]
Magnet Link

Magnet

Love.Actually.2003.1080p.BluRay.x264-FHD-9.51 GB

[collapse]

You may also like...

error: nah :p~