Leave the World Behind (2023)

R | 2h 18min | Drama, Thriller

A family’s getaway to a luxurious rental home takes an ominous turn when a cyberattack knocks out their devices, and two strangers appear at their door.

Watch trailer

Media information

General
Format : Matroska
Format version : Version 4
File size : 2.14 GiB
Duration : 2 h 21 min
Overall bit rate : 2 157 kb/s
Frame rate : 24.000 FPS
Movie name : Leave.the.World.Behind.2023.1080p.10bit.WEBRip.6CH.x265.HEVC

Video
ID : 1
Format : HEVC
Format/Info : High Efficiency Video Coding
Format profile : Main 10@L4@Main
Codec ID : V_MPEGH/ISO/HEVC
Duration : 2 h 21 min
Bit rate : 1 948 kb/s
Width : 1 920 pixels
Height : 800 pixels
Display aspect ratio : 2.40:1
Frame rate mode : Constant
Frame rate : 24.000 FPS
Color space : YUV
Chroma subsampling : 4:2:0
Bit depth : 10 bits
Bits/(Pixel*Frame) : 0.053
Stream size : 1.93 GiB (90%)
Default : Yes
Forced : No

Audio
ID : 2
Format : AAC LC SBR
Commercial name : HE-AAC
Format settings : Explicit
Codec ID : A_AAC-2
Duration : 2 h 19 min
Bit rate : 205 kb/s
Channel(s) : 6 channels
Channel layout : C L R Ls Rs LFE
Sampling rate : 48.0 kHz
Frame rate : 23.438 FPS (2048 SPF)
Compression mode : Lossy
Delay relative to video : 23 ms
Stream size : 205 MiB (9%)
Language : English
Default : Yes
Forced : No

Text #1
ID : 3
Format : UTF-8
Codec ID : S_TEXT/UTF8
Codec ID/Info : UTF-8 Plain Text
Duration : 2 h 13 min
Bit rate : 71 b/s
Frame rate : 0.242 FPS
Count of elements : 1934
Stream size : 69.7 KiB (0%)
Title : English [SDH]
Language : English
Default : Yes
Forced : No

Text #2
ID : 4
Format : UTF-8
Codec ID : S_TEXT/UTF8
Codec ID/Info : UTF-8 Plain Text
Duration : 2 h 18 min
Bit rate : 86 b/s
Frame rate : 0.184 FPS
Count of elements : 1526
Stream size : 87.3 KiB (0%)
Title : Arabic
Language : Arabic
Default : No
Forced : No

Text #3
ID : 5
Format : UTF-8
Codec ID : S_TEXT/UTF8
Codec ID/Info : UTF-8 Plain Text
Duration : 2 h 18 min
Bit rate : 49 b/s
Frame rate : 0.177 FPS
Count of elements : 1468
Stream size : 49.8 KiB (0%)
Title : Basque
Language : Basque
Default : No
Forced : No

Text #4
ID : 6
Format : UTF-8
Codec ID : S_TEXT/UTF8
Codec ID/Info : UTF-8 Plain Text
Duration : 2 h 17 min
Bit rate : 47 b/s
Frame rate : 0.172 FPS
Count of elements : 1424
Stream size : 48.3 KiB (0%)
Title : Catalan
Language : Catalan
Default : No
Forced : No

Text #5
ID : 7
Format : UTF-8
Codec ID : S_TEXT/UTF8
Codec ID/Info : UTF-8 Plain Text
Duration : 2 h 17 min
Bit rate : 47 b/s
Frame rate : 0.186 FPS
Count of elements : 1539
Stream size : 47.7 KiB (0%)
Title : Chinese Simplified
Language : Chinese
Default : No
Forced : No

Text #6
ID : 8
Format : UTF-8
Codec ID : S_TEXT/UTF8
Codec ID/Info : UTF-8 Plain Text
Duration : 2 h 18 min
Bit rate : 44 b/s
Frame rate : 0.193 FPS
Count of elements : 1599
Stream size : 45.0 KiB (0%)
Title : Chinese Traditional
Language : Chinese
Default : No
Forced : No

Text #7
ID : 9
Format : UTF-8
Codec ID : S_TEXT/UTF8
Codec ID/Info : UTF-8 Plain Text
Duration : 2 h 18 min
Bit rate : 43 b/s
Frame rate : 0.182 FPS
Count of elements : 1511
Stream size : 43.8 KiB (0%)
Title : Croatian
Language : Croatian
Default : No
Forced : No

Text #8
ID : 10
Format : UTF-8
Codec ID : S_TEXT/UTF8
Codec ID/Info : UTF-8 Plain Text
Duration : 2 h 18 min
Bit rate : 50 b/s
Frame rate : 0.169 FPS
Count of elements : 1404
Stream size : 51.4 KiB (0%)
Title : Czech
Language : Czech
Default : No
Forced : No

Text #9
ID : 11
Format : UTF-8
Codec ID : S_TEXT/UTF8
Codec ID/Info : UTF-8 Plain Text
Duration : 2 h 16 min
Bit rate : 61 b/s
Frame rate : 0.227 FPS
Count of elements : 1866
Stream size : 62.0 KiB (0%)
Title : Czech [SDH]
Language : Czech
Default : No
Forced : No

Text #10
ID : 12
Format : UTF-8
Codec ID : S_TEXT/UTF8
Codec ID/Info : UTF-8 Plain Text
Duration : 2 h 18 min
Bit rate : 47 b/s
Frame rate : 0.173 FPS
Count of elements : 1432
Stream size : 48.1 KiB (0%)
Title : Danish
Language : Danish
Default : No
Forced : No

Text #11
ID : 13
Format : UTF-8
Codec ID : S_TEXT/UTF8
Codec ID/Info : UTF-8 Plain Text
Duration : 2 h 18 min
Bit rate : 45 b/s
Frame rate : 0.152 FPS
Count of elements : 1259
Stream size : 45.7 KiB (0%)
Title : Dutch
Language : Dutch
Default : No
Forced : No

Text #12
ID : 14
Format : UTF-8
Codec ID : S_TEXT/UTF8
Codec ID/Info : UTF-8 Plain Text
Duration : 2 h 18 min
Bit rate : 46 b/s
Frame rate : 0.180 FPS
Count of elements : 1493
Stream size : 47.4 KiB (0%)
Title : European Spanish
Language : Spanish
Default : No
Forced : No

Text #13
ID : 15
Format : UTF-8
Codec ID : S_TEXT/UTF8
Codec ID/Info : UTF-8 Plain Text
Duration : 2 h 16 min
Bit rate : 61 b/s
Frame rate : 0.220 FPS
Count of elements : 1807
Stream size : 61.4 KiB (0%)
Title : European Spanish [SDH]
Language : Spanish
Default : No
Forced : No

Text #14
ID : 16
Format : UTF-8
Codec ID : S_TEXT/UTF8
Codec ID/Info : UTF-8 Plain Text
Duration : 2 h 17 min
Bit rate : 51 b/s
Frame rate : 0.171 FPS
Count of elements : 1410
Stream size : 51.7 KiB (0%)
Title : Filipino
Language : Filipino
Default : No
Forced : No

Text #15
ID : 17
Format : UTF-8
Codec ID : S_TEXT/UTF8
Codec ID/Info : UTF-8 Plain Text
Duration : 2 h 18 min
Bit rate : 46 b/s
Frame rate : 0.146 FPS
Count of elements : 1206
Stream size : 46.9 KiB (0%)
Title : Finnish
Language : Finnish
Default : No
Forced : No

Text #16
ID : 18
Format : UTF-8
Codec ID : S_TEXT/UTF8
Codec ID/Info : UTF-8 Plain Text
Duration : 2 h 18 min
Bit rate : 49 b/s
Frame rate : 0.181 FPS
Count of elements : 1497
Stream size : 50.0 KiB (0%)
Title : French
Language : French
Default : No
Forced : No

Text #17
ID : 19
Format : UTF-8
Codec ID : S_TEXT/UTF8
Codec ID/Info : UTF-8 Plain Text
Duration : 2 h 18 min
Bit rate : 75 b/s
Frame rate : 0.232 FPS
Count of elements : 1935
Stream size : 76.4 KiB (0%)
Title : French [SDH]
Language : French
Default : No
Forced : No

Text #18
ID : 20
Format : UTF-8
Codec ID : S_TEXT/UTF8
Codec ID/Info : UTF-8 Plain Text
Duration : 2 h 18 min
Bit rate : 46 b/s
Frame rate : 0.185 FPS
Count of elements : 1535
Stream size : 46.7 KiB (0%)
Title : Galician
Language : Galician
Default : No
Forced : No

Text #19
ID : 21
Format : UTF-8
Codec ID : S_TEXT/UTF8
Codec ID/Info : UTF-8 Plain Text
Duration : 2 h 18 min
Bit rate : 49 b/s
Frame rate : 0.178 FPS
Count of elements : 1472
Stream size : 50.1 KiB (0%)
Title : German
Language : German
Default : No
Forced : No

Text #20
ID : 22
Format : UTF-8
Codec ID : S_TEXT/UTF8
Codec ID/Info : UTF-8 Plain Text
Duration : 2 h 19 min
Bit rate : 73 b/s
Frame rate : 0.224 FPS
Count of elements : 1874
Stream size : 74.8 KiB (0%)
Title : German [SDH]
Language : German
Default : No
Forced : No

Text #21
ID : 23
Format : UTF-8
Codec ID : S_TEXT/UTF8
Codec ID/Info : UTF-8 Plain Text
Duration : 2 h 18 min
Bit rate : 80 b/s
Frame rate : 0.183 FPS
Count of elements : 1516
Stream size : 81.7 KiB (0%)
Title : Greek
Language : Greek
Default : No
Forced : No

Text #22
ID : 24
Format : UTF-8
Codec ID : S_TEXT/UTF8
Codec ID/Info : UTF-8 Plain Text
Duration : 2 h 18 min
Bit rate : 82 b/s
Frame rate : 0.185 FPS
Count of elements : 1531
Stream size : 83.8 KiB (0%)
Title : Hebrew
Language : Hebrew
Default : No
Forced : No

Text #23
ID : 25
Format : UTF-8
Codec ID : S_TEXT/UTF8
Codec ID/Info : UTF-8 Plain Text
Duration : 2 h 18 min
Bit rate : 48 b/s
Frame rate : 0.174 FPS
Count of elements : 1443
Stream size : 49.4 KiB (0%)
Title : Hungarian
Language : Hungarian
Default : No
Forced : No

Text #24
ID : 26
Format : UTF-8
Codec ID : S_TEXT/UTF8
Codec ID/Info : UTF-8 Plain Text
Duration : 2 h 12 min
Bit rate : 60 b/s
Frame rate : 0.201 FPS
Count of elements : 1596
Stream size : 58.6 KiB (0%)
Title : Hungarian [SDH]
Language : Hungarian
Default : No
Forced : No

Text #25
ID : 27
Format : UTF-8
Codec ID : S_TEXT/UTF8
Codec ID/Info : UTF-8 Plain Text
Duration : 2 h 18 min
Bit rate : 46 b/s
Frame rate : 0.182 FPS
Count of elements : 1509
Stream size : 47.3 KiB (0%)
Title : Indonesian
Language : Indonesian
Default : No
Forced : No

Text #26
ID : 28
Format : UTF-8
Codec ID : S_TEXT/UTF8
Codec ID/Info : UTF-8 Plain Text
Duration : 2 h 18 min
Bit rate : 47 b/s
Frame rate : 0.175 FPS
Count of elements : 1446
Stream size : 48.1 KiB (0%)
Title : Italian
Language : Italian
Default : No
Forced : No

Text #27
ID : 29
Format : UTF-8
Codec ID : S_TEXT/UTF8
Codec ID/Info : UTF-8 Plain Text
Duration : 2 h 19 min
Bit rate : 61 b/s
Frame rate : 0.209 FPS
Count of elements : 1754
Stream size : 63.4 KiB (0%)
Title : Italian [SDH]
Language : Italian
Default : No
Forced : No

Text #28
ID : 30
Format : UTF-8
Codec ID : S_TEXT/UTF8
Codec ID/Info : UTF-8 Plain Text
Duration : 2 h 18 min
Bit rate : 43 b/s
Frame rate : 0.186 FPS
Count of elements : 1539
Stream size : 43.7 KiB (0%)
Title : Japanese
Language : Japanese
Default : No
Forced : No

Text #29
ID : 31
Format : UTF-8
Codec ID : S_TEXT/UTF8
Codec ID/Info : UTF-8 Plain Text
Duration : 2 h 18 min
Bit rate : 65 b/s
Frame rate : 0.227 FPS
Count of elements : 1895
Stream size : 66.5 KiB (0%)
Title : Japanese [SDH]
Language : Japanese
Default : No
Forced : No

Text #30
ID : 32
Format : UTF-8
Codec ID : S_TEXT/UTF8
Codec ID/Info : UTF-8 Plain Text
Duration : 2 h 18 min
Bit rate : 51 b/s
Frame rate : 0.184 FPS
Count of elements : 1521
Stream size : 52.3 KiB (0%)
Title : Korean
Language : Korean
Default : No
Forced : No

Text #31
ID : 33
Format : UTF-8
Codec ID : S_TEXT/UTF8
Codec ID/Info : UTF-8 Plain Text
Duration : 2 h 18 min
Bit rate : 48 b/s
Frame rate : 0.179 FPS
Count of elements : 1482
Stream size : 48.9 KiB (0%)
Title : Malay
Language : Malay
Default : No
Forced : No

Text #32
ID : 34
Format : UTF-8
Codec ID : S_TEXT/UTF8
Codec ID/Info : UTF-8 Plain Text
Duration : 2 h 18 min
Bit rate : 48 b/s
Frame rate : 0.162 FPS
Count of elements : 1345
Stream size : 48.9 KiB (0%)
Title : Norwegian Bokmål
Language : Norwegian Bokmal
Default : No
Forced : No

Text #33
ID : 35
Format : UTF-8
Codec ID : S_TEXT/UTF8
Codec ID/Info : UTF-8 Plain Text
Duration : 2 h 18 min
Bit rate : 44 b/s
Frame rate : 0.174 FPS
Count of elements : 1437
Stream size : 44.9 KiB (0%)
Title : Polish
Language : Polish
Default : No
Forced : No

Text #34
ID : 36
Format : UTF-8
Codec ID : S_TEXT/UTF8
Codec ID/Info : UTF-8 Plain Text
Duration : 2 h 18 min
Bit rate : 50 b/s
Frame rate : 0.208 FPS
Count of elements : 1735
Stream size : 51.7 KiB (0%)
Title : Polish [SDH]
Language : Polish
Default : No
Forced : No

Text #35
ID : 37
Format : UTF-8
Codec ID : S_TEXT/UTF8
Codec ID/Info : UTF-8 Plain Text
Duration : 2 h 18 min
Bit rate : 50 b/s
Frame rate : 0.173 FPS
Count of elements : 1434
Stream size : 50.6 KiB (0%)
Title : Portuguese
Language : Portuguese
Default : No
Forced : No

Text #36
ID : 38
Format : UTF-8
Codec ID : S_TEXT/UTF8
Codec ID/Info : UTF-8 Plain Text
Duration : 2 h 18 min
Bit rate : 48 b/s
Frame rate : 0.177 FPS
Count of elements : 1470
Stream size : 49.0 KiB (0%)
Title : Portuguese Brazilian
Language : Portuguese
Default : No
Forced : No

Text #37
ID : 39
Format : UTF-8
Codec ID : S_TEXT/UTF8
Codec ID/Info : UTF-8 Plain Text
Duration : 2 h 18 min
Bit rate : 68 b/s
Frame rate : 0.234 FPS
Count of elements : 1950
Stream size : 69.2 KiB (0%)
Title : Portuguese Brazilian [SDH]
Language : Portuguese
Default : No
Forced : No

Text #38
ID : 40
Format : UTF-8
Codec ID : S_TEXT/UTF8
Codec ID/Info : UTF-8 Plain Text
Duration : 2 h 18 min
Bit rate : 49 b/s
Frame rate : 0.171 FPS
Count of elements : 1419
Stream size : 50.2 KiB (0%)
Title : Romanian
Language : Romanian
Default : No
Forced : No

Text #39
ID : 41
Format : UTF-8
Codec ID : S_TEXT/UTF8
Codec ID/Info : UTF-8 Plain Text
Duration : 2 h 18 min
Bit rate : 76 b/s
Frame rate : 0.199 FPS
Count of elements : 1648
Stream size : 77.4 KiB (0%)
Title : Russian
Language : Russian
Default : No
Forced : No

Text #40
ID : 42
Format : UTF-8
Codec ID : S_TEXT/UTF8
Codec ID/Info : UTF-8 Plain Text
Duration : 2 h 18 min
Bit rate : 51 b/s
Frame rate : 0.180 FPS
Count of elements : 1490
Stream size : 51.6 KiB (0%)
Title : Spanish
Language : Spanish
Default : No
Forced : No

Text #41
ID : 43
Format : UTF-8
Codec ID : S_TEXT/UTF8
Codec ID/Info : UTF-8 Plain Text
Duration : 2 h 15 min
Bit rate : 62 b/s
Frame rate : 0.224 FPS
Count of elements : 1818
Stream size : 62.3 KiB (0%)
Title : Spanish [SDH]
Language : Spanish
Default : No
Forced : No

Text #42
ID : 44
Format : UTF-8
Codec ID : S_TEXT/UTF8
Codec ID/Info : UTF-8 Plain Text
Duration : 2 h 18 min
Bit rate : 50 b/s
Frame rate : 0.146 FPS
Count of elements : 1211
Stream size : 51.1 KiB (0%)
Title : Swedish
Language : Swedish
Default : No
Forced : No

Text #43
ID : 45
Format : UTF-8
Codec ID : S_TEXT/UTF8
Codec ID/Info : UTF-8 Plain Text
Duration : 2 h 18 min
Bit rate : 130 b/s
Frame rate : 0.185 FPS
Count of elements : 1536
Stream size : 132 KiB (0%)
Title : Thai
Language : Thai
Default : No
Forced : No

Text #44
ID : 46
Format : UTF-8
Codec ID : S_TEXT/UTF8
Codec ID/Info : UTF-8 Plain Text
Duration : 2 h 17 min
Bit rate : 50 b/s
Frame rate : 0.171 FPS
Count of elements : 1412
Stream size : 50.7 KiB (0%)
Title : Turkish
Language : Turkish
Default : No
Forced : No

Text #45
ID : 47
Format : UTF-8
Codec ID : S_TEXT/UTF8
Codec ID/Info : UTF-8 Plain Text
Duration : 2 h 18 min
Bit rate : 61 b/s
Frame rate : 0.198 FPS
Count of elements : 1654
Stream size : 62.2 KiB (0%)
Title : Turkish [SDH]
Language : Turkish
Default : No
Forced : No

Text #46
ID : 48
Format : UTF-8
Codec ID : S_TEXT/UTF8
Codec ID/Info : UTF-8 Plain Text
Duration : 2 h 18 min
Bit rate : 77 b/s
Frame rate : 0.183 FPS
Count of elements : 1512
Stream size : 78.3 KiB (0%)
Title : Ukrainian
Language : Ukrainian
Default : No
Forced : No

Text #47
ID : 49
Format : UTF-8
Codec ID : S_TEXT/UTF8
Codec ID/Info : UTF-8 Plain Text
Duration : 2 h 18 min
Bit rate : 64 b/s
Frame rate : 0.166 FPS
Count of elements : 1379
Stream size : 65.6 KiB (0%)
Title : Vietnamese
Language : Vietnamese
Default : No
Forced : No

[collapse]
Download Link(s)

Download

Direct download files get automatically deleted after a month or so. Posted on : 12/08/2023

[collapse]
Magnet Link

Magnet

Daddys.Home.2.2017.1080p.BluRay.x264-BLOW-7.72 GB

[collapse]

Media information

General
Format : Matroska
Format version : Version 4
File size : 1.03 GiB
Duration : 2 h 21 min
Overall bit rate : 1 039 kb/s
Frame rate : 24.000 FPS
Movie name : Leave.the.World.Behind.2023.720p.10bit.WEBRip.6CH.x265.HEVC

Video
ID : 1
Format : HEVC
Format/Info : High Efficiency Video Coding
Format profile : Main [email protected]@Main
Codec ID : V_MPEGH/ISO/HEVC
Duration : 2 h 21 min
Bit rate : 830 kb/s
Width : 1 280 pixels
Height : 536 pixels
Display aspect ratio : 2.40:1
Frame rate mode : Constant
Frame rate : 24.000 FPS
Color space : YUV
Chroma subsampling : 4:2:0
Bit depth : 10 bits
Bits/(Pixel*Frame) : 0.050
Stream size : 841 MiB (80%)
Default : Yes
Forced : No

Audio
ID : 2
Format : AAC LC SBR
Commercial name : HE-AAC
Format settings : Explicit
Codec ID : A_AAC-2
Duration : 2 h 19 min
Bit rate : 205 kb/s
Channel(s) : 6 channels
Channel layout : C L R Ls Rs LFE
Sampling rate : 48.0 kHz
Frame rate : 23.438 FPS (2048 SPF)
Compression mode : Lossy
Delay relative to video : 23 ms
Stream size : 205 MiB (19%)
Language : English
Default : Yes
Forced : No

Text #1
ID : 3
Format : UTF-8
Codec ID : S_TEXT/UTF8
Codec ID/Info : UTF-8 Plain Text
Duration : 2 h 13 min
Bit rate : 71 b/s
Frame rate : 0.242 FPS
Count of elements : 1934
Stream size : 69.7 KiB (0%)
Title : English [SDH]
Language : English
Default : Yes
Forced : No

Text #2
ID : 4
Format : UTF-8
Codec ID : S_TEXT/UTF8
Codec ID/Info : UTF-8 Plain Text
Duration : 2 h 18 min
Bit rate : 86 b/s
Frame rate : 0.184 FPS
Count of elements : 1526
Stream size : 87.3 KiB (0%)
Title : Arabic
Language : Arabic
Default : No
Forced : No

Text #3
ID : 5
Format : UTF-8
Codec ID : S_TEXT/UTF8
Codec ID/Info : UTF-8 Plain Text
Duration : 2 h 18 min
Bit rate : 49 b/s
Frame rate : 0.177 FPS
Count of elements : 1468
Stream size : 49.8 KiB (0%)
Title : Basque
Language : Basque
Default : No
Forced : No

Text #4
ID : 6
Format : UTF-8
Codec ID : S_TEXT/UTF8
Codec ID/Info : UTF-8 Plain Text
Duration : 2 h 17 min
Bit rate : 47 b/s
Frame rate : 0.172 FPS
Count of elements : 1424
Stream size : 48.3 KiB (0%)
Title : Catalan
Language : Catalan
Default : No
Forced : No

Text #5
ID : 7
Format : UTF-8
Codec ID : S_TEXT/UTF8
Codec ID/Info : UTF-8 Plain Text
Duration : 2 h 17 min
Bit rate : 47 b/s
Frame rate : 0.186 FPS
Count of elements : 1539
Stream size : 47.7 KiB (0%)
Title : Chinese Simplified
Language : Chinese
Default : No
Forced : No

Text #6
ID : 8
Format : UTF-8
Codec ID : S_TEXT/UTF8
Codec ID/Info : UTF-8 Plain Text
Duration : 2 h 18 min
Bit rate : 44 b/s
Frame rate : 0.193 FPS
Count of elements : 1599
Stream size : 45.0 KiB (0%)
Title : Chinese Traditional
Language : Chinese
Default : No
Forced : No

Text #7
ID : 9
Format : UTF-8
Codec ID : S_TEXT/UTF8
Codec ID/Info : UTF-8 Plain Text
Duration : 2 h 18 min
Bit rate : 43 b/s
Frame rate : 0.182 FPS
Count of elements : 1511
Stream size : 43.8 KiB (0%)
Title : Croatian
Language : Croatian
Default : No
Forced : No

Text #8
ID : 10
Format : UTF-8
Codec ID : S_TEXT/UTF8
Codec ID/Info : UTF-8 Plain Text
Duration : 2 h 18 min
Bit rate : 50 b/s
Frame rate : 0.169 FPS
Count of elements : 1404
Stream size : 51.4 KiB (0%)
Title : Czech
Language : Czech
Default : No
Forced : No

Text #9
ID : 11
Format : UTF-8
Codec ID : S_TEXT/UTF8
Codec ID/Info : UTF-8 Plain Text
Duration : 2 h 16 min
Bit rate : 61 b/s
Frame rate : 0.227 FPS
Count of elements : 1866
Stream size : 62.0 KiB (0%)
Title : Czech [SDH]
Language : Czech
Default : No
Forced : No

Text #10
ID : 12
Format : UTF-8
Codec ID : S_TEXT/UTF8
Codec ID/Info : UTF-8 Plain Text
Duration : 2 h 18 min
Bit rate : 47 b/s
Frame rate : 0.173 FPS
Count of elements : 1432
Stream size : 48.1 KiB (0%)
Title : Danish
Language : Danish
Default : No
Forced : No

Text #11
ID : 13
Format : UTF-8
Codec ID : S_TEXT/UTF8
Codec ID/Info : UTF-8 Plain Text
Duration : 2 h 18 min
Bit rate : 45 b/s
Frame rate : 0.152 FPS
Count of elements : 1259
Stream size : 45.7 KiB (0%)
Title : Dutch
Language : Dutch
Default : No
Forced : No

Text #12
ID : 14
Format : UTF-8
Codec ID : S_TEXT/UTF8
Codec ID/Info : UTF-8 Plain Text
Duration : 2 h 18 min
Bit rate : 46 b/s
Frame rate : 0.180 FPS
Count of elements : 1493
Stream size : 47.4 KiB (0%)
Title : European Spanish
Language : Spanish
Default : No
Forced : No

Text #13
ID : 15
Format : UTF-8
Codec ID : S_TEXT/UTF8
Codec ID/Info : UTF-8 Plain Text
Duration : 2 h 16 min
Bit rate : 61 b/s
Frame rate : 0.220 FPS
Count of elements : 1807
Stream size : 61.4 KiB (0%)
Title : European Spanish [SDH]
Language : Spanish
Default : No
Forced : No

Text #14
ID : 16
Format : UTF-8
Codec ID : S_TEXT/UTF8
Codec ID/Info : UTF-8 Plain Text
Duration : 2 h 17 min
Bit rate : 51 b/s
Frame rate : 0.171 FPS
Count of elements : 1410
Stream size : 51.7 KiB (0%)
Title : Filipino
Language : Filipino
Default : No
Forced : No

Text #15
ID : 17
Format : UTF-8
Codec ID : S_TEXT/UTF8
Codec ID/Info : UTF-8 Plain Text
Duration : 2 h 18 min
Bit rate : 46 b/s
Frame rate : 0.146 FPS
Count of elements : 1206
Stream size : 46.9 KiB (0%)
Title : Finnish
Language : Finnish
Default : No
Forced : No

Text #16
ID : 18
Format : UTF-8
Codec ID : S_TEXT/UTF8
Codec ID/Info : UTF-8 Plain Text
Duration : 2 h 18 min
Bit rate : 49 b/s
Frame rate : 0.181 FPS
Count of elements : 1497
Stream size : 50.0 KiB (0%)
Title : French
Language : French
Default : No
Forced : No

Text #17
ID : 19
Format : UTF-8
Codec ID : S_TEXT/UTF8
Codec ID/Info : UTF-8 Plain Text
Duration : 2 h 18 min
Bit rate : 75 b/s
Frame rate : 0.232 FPS
Count of elements : 1935
Stream size : 76.4 KiB (0%)
Title : French [SDH]
Language : French
Default : No
Forced : No

Text #18
ID : 20
Format : UTF-8
Codec ID : S_TEXT/UTF8
Codec ID/Info : UTF-8 Plain Text
Duration : 2 h 18 min
Bit rate : 46 b/s
Frame rate : 0.185 FPS
Count of elements : 1535
Stream size : 46.7 KiB (0%)
Title : Galician
Language : Galician
Default : No
Forced : No

Text #19
ID : 21
Format : UTF-8
Codec ID : S_TEXT/UTF8
Codec ID/Info : UTF-8 Plain Text
Duration : 2 h 18 min
Bit rate : 49 b/s
Frame rate : 0.178 FPS
Count of elements : 1472
Stream size : 50.1 KiB (0%)
Title : German
Language : German
Default : No
Forced : No

Text #20
ID : 22
Format : UTF-8
Codec ID : S_TEXT/UTF8
Codec ID/Info : UTF-8 Plain Text
Duration : 2 h 19 min
Bit rate : 73 b/s
Frame rate : 0.224 FPS
Count of elements : 1874
Stream size : 74.8 KiB (0%)
Title : German [SDH]
Language : German
Default : No
Forced : No

Text #21
ID : 23
Format : UTF-8
Codec ID : S_TEXT/UTF8
Codec ID/Info : UTF-8 Plain Text
Duration : 2 h 18 min
Bit rate : 80 b/s
Frame rate : 0.183 FPS
Count of elements : 1516
Stream size : 81.7 KiB (0%)
Title : Greek
Language : Greek
Default : No
Forced : No

Text #22
ID : 24
Format : UTF-8
Codec ID : S_TEXT/UTF8
Codec ID/Info : UTF-8 Plain Text
Duration : 2 h 18 min
Bit rate : 82 b/s
Frame rate : 0.185 FPS
Count of elements : 1531
Stream size : 83.8 KiB (0%)
Title : Hebrew
Language : Hebrew
Default : No
Forced : No

Text #23
ID : 25
Format : UTF-8
Codec ID : S_TEXT/UTF8
Codec ID/Info : UTF-8 Plain Text
Duration : 2 h 18 min
Bit rate : 48 b/s
Frame rate : 0.174 FPS
Count of elements : 1443
Stream size : 49.4 KiB (0%)
Title : Hungarian
Language : Hungarian
Default : No
Forced : No

Text #24
ID : 26
Format : UTF-8
Codec ID : S_TEXT/UTF8
Codec ID/Info : UTF-8 Plain Text
Duration : 2 h 12 min
Bit rate : 60 b/s
Frame rate : 0.201 FPS
Count of elements : 1596
Stream size : 58.6 KiB (0%)
Title : Hungarian [SDH]
Language : Hungarian
Default : No
Forced : No

Text #25
ID : 27
Format : UTF-8
Codec ID : S_TEXT/UTF8
Codec ID/Info : UTF-8 Plain Text
Duration : 2 h 18 min
Bit rate : 46 b/s
Frame rate : 0.182 FPS
Count of elements : 1509
Stream size : 47.3 KiB (0%)
Title : Indonesian
Language : Indonesian
Default : No
Forced : No

Text #26
ID : 28
Format : UTF-8
Codec ID : S_TEXT/UTF8
Codec ID/Info : UTF-8 Plain Text
Duration : 2 h 18 min
Bit rate : 47 b/s
Frame rate : 0.175 FPS
Count of elements : 1446
Stream size : 48.1 KiB (0%)
Title : Italian
Language : Italian
Default : No
Forced : No

Text #27
ID : 29
Format : UTF-8
Codec ID : S_TEXT/UTF8
Codec ID/Info : UTF-8 Plain Text
Duration : 2 h 19 min
Bit rate : 61 b/s
Frame rate : 0.209 FPS
Count of elements : 1754
Stream size : 63.4 KiB (0%)
Title : Italian [SDH]
Language : Italian
Default : No
Forced : No

Text #28
ID : 30
Format : UTF-8
Codec ID : S_TEXT/UTF8
Codec ID/Info : UTF-8 Plain Text
Duration : 2 h 18 min
Bit rate : 43 b/s
Frame rate : 0.186 FPS
Count of elements : 1539
Stream size : 43.7 KiB (0%)
Title : Japanese
Language : Japanese
Default : No
Forced : No

Text #29
ID : 31
Format : UTF-8
Codec ID : S_TEXT/UTF8
Codec ID/Info : UTF-8 Plain Text
Duration : 2 h 18 min
Bit rate : 65 b/s
Frame rate : 0.227 FPS
Count of elements : 1895
Stream size : 66.5 KiB (0%)
Title : Japanese [SDH]
Language : Japanese
Default : No
Forced : No

Text #30
ID : 32
Format : UTF-8
Codec ID : S_TEXT/UTF8
Codec ID/Info : UTF-8 Plain Text
Duration : 2 h 18 min
Bit rate : 51 b/s
Frame rate : 0.184 FPS
Count of elements : 1521
Stream size : 52.3 KiB (0%)
Title : Korean
Language : Korean
Default : No
Forced : No

Text #31
ID : 33
Format : UTF-8
Codec ID : S_TEXT/UTF8
Codec ID/Info : UTF-8 Plain Text
Duration : 2 h 18 min
Bit rate : 48 b/s
Frame rate : 0.179 FPS
Count of elements : 1482
Stream size : 48.9 KiB (0%)
Title : Malay
Language : Malay
Default : No
Forced : No

Text #32
ID : 34
Format : UTF-8
Codec ID : S_TEXT/UTF8
Codec ID/Info : UTF-8 Plain Text
Duration : 2 h 18 min
Bit rate : 48 b/s
Frame rate : 0.162 FPS
Count of elements : 1345
Stream size : 48.9 KiB (0%)
Title : Norwegian Bokmål
Language : Norwegian Bokmal
Default : No
Forced : No

Text #33
ID : 35
Format : UTF-8
Codec ID : S_TEXT/UTF8
Codec ID/Info : UTF-8 Plain Text
Duration : 2 h 18 min
Bit rate : 44 b/s
Frame rate : 0.174 FPS
Count of elements : 1437
Stream size : 44.9 KiB (0%)
Title : Polish
Language : Polish
Default : No
Forced : No

Text #34
ID : 36
Format : UTF-8
Codec ID : S_TEXT/UTF8
Codec ID/Info : UTF-8 Plain Text
Duration : 2 h 18 min
Bit rate : 50 b/s
Frame rate : 0.208 FPS
Count of elements : 1735
Stream size : 51.7 KiB (0%)
Title : Polish [SDH]
Language : Polish
Default : No
Forced : No

Text #35
ID : 37
Format : UTF-8
Codec ID : S_TEXT/UTF8
Codec ID/Info : UTF-8 Plain Text
Duration : 2 h 18 min
Bit rate : 50 b/s
Frame rate : 0.173 FPS
Count of elements : 1434
Stream size : 50.6 KiB (0%)
Title : Portuguese
Language : Portuguese
Default : No
Forced : No

Text #36
ID : 38
Format : UTF-8
Codec ID : S_TEXT/UTF8
Codec ID/Info : UTF-8 Plain Text
Duration : 2 h 18 min
Bit rate : 48 b/s
Frame rate : 0.177 FPS
Count of elements : 1470
Stream size : 49.0 KiB (0%)
Title : Portuguese Brazilian
Language : Portuguese
Default : No
Forced : No

Text #37
ID : 39
Format : UTF-8
Codec ID : S_TEXT/UTF8
Codec ID/Info : UTF-8 Plain Text
Duration : 2 h 18 min
Bit rate : 68 b/s
Frame rate : 0.234 FPS
Count of elements : 1950
Stream size : 69.2 KiB (0%)
Title : Portuguese Brazilian [SDH]
Language : Portuguese
Default : No
Forced : No

Text #38
ID : 40
Format : UTF-8
Codec ID : S_TEXT/UTF8
Codec ID/Info : UTF-8 Plain Text
Duration : 2 h 18 min
Bit rate : 49 b/s
Frame rate : 0.171 FPS
Count of elements : 1419
Stream size : 50.2 KiB (0%)
Title : Romanian
Language : Romanian
Default : No
Forced : No

Text #39
ID : 41
Format : UTF-8
Codec ID : S_TEXT/UTF8
Codec ID/Info : UTF-8 Plain Text
Duration : 2 h 18 min
Bit rate : 76 b/s
Frame rate : 0.199 FPS
Count of elements : 1648
Stream size : 77.4 KiB (0%)
Title : Russian
Language : Russian
Default : No
Forced : No

Text #40
ID : 42
Format : UTF-8
Codec ID : S_TEXT/UTF8
Codec ID/Info : UTF-8 Plain Text
Duration : 2 h 18 min
Bit rate : 51 b/s
Frame rate : 0.180 FPS
Count of elements : 1490
Stream size : 51.6 KiB (0%)
Title : Spanish
Language : Spanish
Default : No
Forced : No

Text #41
ID : 43
Format : UTF-8
Codec ID : S_TEXT/UTF8
Codec ID/Info : UTF-8 Plain Text
Duration : 2 h 15 min
Bit rate : 62 b/s
Frame rate : 0.224 FPS
Count of elements : 1818
Stream size : 62.3 KiB (0%)
Title : Spanish [SDH]
Language : Spanish
Default : No
Forced : No

Text #42
ID : 44
Format : UTF-8
Codec ID : S_TEXT/UTF8
Codec ID/Info : UTF-8 Plain Text
Duration : 2 h 18 min
Bit rate : 50 b/s
Frame rate : 0.146 FPS
Count of elements : 1211
Stream size : 51.1 KiB (0%)
Title : Swedish
Language : Swedish
Default : No
Forced : No

Text #43
ID : 45
Format : UTF-8
Codec ID : S_TEXT/UTF8
Codec ID/Info : UTF-8 Plain Text
Duration : 2 h 18 min
Bit rate : 130 b/s
Frame rate : 0.185 FPS
Count of elements : 1536
Stream size : 132 KiB (0%)
Title : Thai
Language : Thai
Default : No
Forced : No

Text #44
ID : 46
Format : UTF-8
Codec ID : S_TEXT/UTF8
Codec ID/Info : UTF-8 Plain Text
Duration : 2 h 17 min
Bit rate : 50 b/s
Frame rate : 0.171 FPS
Count of elements : 1412
Stream size : 50.7 KiB (0%)
Title : Turkish
Language : Turkish
Default : No
Forced : No

Text #45
ID : 47
Format : UTF-8
Codec ID : S_TEXT/UTF8
Codec ID/Info : UTF-8 Plain Text
Duration : 2 h 18 min
Bit rate : 61 b/s
Frame rate : 0.198 FPS
Count of elements : 1654
Stream size : 62.2 KiB (0%)
Title : Turkish [SDH]
Language : Turkish
Default : No
Forced : No

Text #46
ID : 48
Format : UTF-8
Codec ID : S_TEXT/UTF8
Codec ID/Info : UTF-8 Plain Text
Duration : 2 h 18 min
Bit rate : 77 b/s
Frame rate : 0.183 FPS
Count of elements : 1512
Stream size : 78.3 KiB (0%)
Title : Ukrainian
Language : Ukrainian
Default : No
Forced : No

Text #47
ID : 49
Format : UTF-8
Codec ID : S_TEXT/UTF8
Codec ID/Info : UTF-8 Plain Text
Duration : 2 h 18 min
Bit rate : 64 b/s
Frame rate : 0.166 FPS
Count of elements : 1379
Stream size : 65.6 KiB (0%)
Title : Vietnamese
Language : Vietnamese
Default : No
Forced : No

[collapse]
Download Link(s)

Download

Direct download files get automatically deleted after a month or so. Posted on : 12/08/2023

[collapse]
Magnet Link

Magnet

Daddys.Home.2.2017.1080p.BluRay.x264-BLOW-7.72 GB

[collapse]

You may also like...

error: nah :p~