Last Survivors (2021)

1h 38min | Sci-Fi, Thriller

A father and son, who have been living off grid for 20 years, encounter an outsider who threatens to destroy the utopia they’ve built.

Watch trailer

Media information

General
Format : Matroska
Format version : Version 4
File size : 430 MiB
Duration : 1 h 38 min
Overall bit rate : 611 kb/s
Movie name : Last.Survivors.2021.720p.WEBRip.2CH.x265.HEVC

Video
ID : 1
Format : HEVC
Format/Info : High Efficiency Video Coding
Format profile : [email protected]@Main
Codec ID : V_MPEGH/ISO/HEVC
Duration : 1 h 38 min
Bit rate : 535 kb/s
Width : 1 280 pixels
Height : 448 pixels
Display aspect ratio : 2.857
Frame rate mode : Constant
Frame rate : 23.976 (24000/1001) FPS
Color space : YUV
Chroma subsampling : 4:2:0
Bit depth : 8 bits
Bits/(Pixel*Frame) : 0.039
Stream size : 377 MiB (88%)
Default : Yes
Forced : No
Color range : Limited
Color primaries : BT.709
Transfer characteristics : BT.709
Matrix coefficients : BT.709

Audio
ID : 2
Format : AAC LC SBR
Commercial name : HE-AAC
Format settings : Explicit
Codec ID : A_AAC-2
Duration : 1 h 38 min
Bit rate : 73.7 kb/s
Channel(s) : 2 channels
Channel layout : L R
Sampling rate : 48.0 kHz
Frame rate : 23.438 FPS (2048 SPF)
Compression mode : Lossy
Delay relative to video : 23 ms
Stream size : 52.0 MiB (12%)
Language : English
Default : Yes
Forced : No

Text
ID : 3
Format : UTF-8
Codec ID : S_TEXT/UTF8
Codec ID/Info : UTF-8 Plain Text
Duration : 1 h 32 min
Bit rate : 41 b/s
Count of elements : 968
Stream size : 28.3 KiB (0%)
Language : English
Default : Yes
Forced : No

[collapse]
Download Link(s)

Download

Direct download files get automatically deleted after a month or so. Posted on : 02/04/2022

[collapse]
Magnet Link

Magnet

Last.Survivors.2022.1080p.WEBRip.DD5.1.x264-NOGRP-4.90 GB

[collapse]

You may also like...

error: nah :p~