LaRoy, Texas (2023)

1h 52min | Comedy, Crime, Thriller

When Ray discovers that his wife is cheating on him, he decides he’s going to kill himself. His plans suddenly change when a stranger mistakes him for a low-rent hitman.

Watch trailer

Media information

General
Format : Matroska
Format version : Version 4
File size : 1.54 GiB
Duration : 1 h 52 min
Overall bit rate : 1 958 kb/s
Frame rate : 23.976 FPS
Movie name : LaRoy.Texas.2023.1080p.10bit.WEBRip.6CH.x265.HEVC

Video
ID : 1
Format : HEVC
Format/Info : High Efficiency Video Coding
Format profile : Main 10@L4@Main
Codec ID : V_MPEGH/ISO/HEVC
Duration : 1 h 52 min
Bit rate : 1 747 kb/s
Width : 1 920 pixels
Height : 800 pixels
Display aspect ratio : 2.40:1
Frame rate mode : Constant
Frame rate : 23.976 (24000/1001) FPS
Color space : YUV
Chroma subsampling : 4:2:0
Bit depth : 10 bits
Bits/(Pixel*Frame) : 0.047
Stream size : 1.37 GiB (89%)
Default : Yes
Forced : No
Color range : Limited
Color primaries : BT.709
Transfer characteristics : BT.709
Matrix coefficients : BT.709

Audio
ID : 2
Format : AAC LC SBR
Commercial name : HE-AAC
Format settings : Explicit
Codec ID : A_AAC-2
Duration : 1 h 52 min
Bit rate : 208 kb/s
Channel(s) : 6 channels
Channel layout : C L R Ls Rs LFE
Sampling rate : 48.0 kHz
Frame rate : 23.438 FPS (2048 SPF)
Compression mode : Lossy
Delay relative to video : 23 ms
Stream size : 167 MiB (11%)
Language : English
Default : Yes
Forced : No

Text #1
ID : 3
Format : UTF-8
Codec ID : S_TEXT/UTF8
Codec ID/Info : UTF-8 Plain Text
Duration : 1 h 46 min
Bit rate : 54 b/s
Frame rate : 0.247 FPS
Count of elements : 1581
Stream size : 42.3 KiB (0%)
Language : English
Default : No
Forced : No

Text #2
ID : 4
Format : UTF-8
Codec ID : S_TEXT/UTF8
Codec ID/Info : UTF-8 Plain Text
Duration : 1 h 50 min
Bit rate : 58 b/s
Frame rate : 0.267 FPS
Count of elements : 1772
Stream size : 47.3 KiB (0%)
Title : SDH
Language : English
Default : Yes
Forced : No

[collapse]
Download Link(s)

Download

Direct download files get automatically deleted after a month or so. Posted on : 04/14/2024

[collapse]
Magnet Link

Magnet

LaRoy.Texas.2023.1080p.AMZN.WEB-DL.DDP5.1.H.264-BYNDR.TGx-5.85 GB

[collapse]

Media information

General
Format : Matroska
Format version : Version 4
File size : 714 MiB
Duration : 1 h 52 min
Overall bit rate : 888 kb/s
Frame rate : 23.976 FPS
Movie name : LaRoy.Texas.2023.720p.10bit.WEBRip.6CH.x265.HEVC

Video
ID : 1
Format : HEVC
Format/Info : High Efficiency Video Coding
Format profile : Main [email protected]@Main
Codec ID : V_MPEGH/ISO/HEVC
Duration : 1 h 52 min
Bit rate : 678 kb/s
Width : 1 280 pixels
Height : 536 pixels
Display aspect ratio : 2.39:1
Frame rate mode : Constant
Frame rate : 23.976 (24000/1001) FPS
Color space : YUV
Chroma subsampling : 4:2:0
Bit depth : 10 bits
Bits/(Pixel*Frame) : 0.041
Stream size : 545 MiB (76%)
Default : Yes
Forced : No
Color range : Limited
Color primaries : BT.709
Transfer characteristics : BT.709
Matrix coefficients : BT.709

Audio
ID : 2
Format : AAC LC SBR
Commercial name : HE-AAC
Format settings : Explicit
Codec ID : A_AAC-2
Duration : 1 h 52 min
Bit rate : 208 kb/s
Channel(s) : 6 channels
Channel layout : C L R Ls Rs LFE
Sampling rate : 48.0 kHz
Frame rate : 23.438 FPS (2048 SPF)
Compression mode : Lossy
Delay relative to video : 23 ms
Stream size : 167 MiB (23%)
Language : English
Default : Yes
Forced : No

Text #1
ID : 3
Format : UTF-8
Codec ID : S_TEXT/UTF8
Codec ID/Info : UTF-8 Plain Text
Duration : 1 h 46 min
Bit rate : 54 b/s
Frame rate : 0.247 FPS
Count of elements : 1581
Stream size : 42.3 KiB (0%)
Language : English
Default : No
Forced : No

Text #2
ID : 4
Format : UTF-8
Codec ID : S_TEXT/UTF8
Codec ID/Info : UTF-8 Plain Text
Duration : 1 h 50 min
Bit rate : 58 b/s
Frame rate : 0.267 FPS
Count of elements : 1772
Stream size : 47.3 KiB (0%)
Title : SDH
Language : English
Default : Yes
Forced : No

[collapse]
Download Link(s)

Download

Direct download files get automatically deleted after a month or so. Posted on : 04/14/2024

[collapse]
Magnet Link

Magnet

LaRoy.Texas.2023.1080p.AMZN.WEB-DL.DDP5.1.H.264-BYNDR.TGx-5.85 GB

[collapse]

You may also like...

error: nah :p~