King Arthur (2004)

PG-13 | 2h 6min | Action, Adventure, Drama

A demystified take on the tale of King Arthur and the Knights of the Round Table.

Watch trailer

Media information

General
Format : Matroska
Format version : Version 4
File size : 2.58 GiB
Duration : 2 h 21 min
Overall bit rate : 2 604 kb/s
Frame rate : 23.976 FPS
Movie name : King.Arthur.2004.DIRECTORS.CUT.1080p.10bit.BluRay.6CH.x265.HEVC

Video
ID : 1
Format : HEVC
Format/Info : High Efficiency Video Coding
Format profile : Main 10@L4@Main
Codec ID : V_MPEGH/ISO/HEVC
Duration : 2 h 21 min
Bit rate : 2 217 kb/s
Width : 1 920 pixels
Height : 816 pixels
Display aspect ratio : 2.35:1
Frame rate mode : Constant
Frame rate : 23.976 (24000/1001) FPS
Color space : YUV
Chroma subsampling : 4:2:0 (Type 0)
Bit depth : 10 bits
Bits/(Pixel*Frame) : 0.059
Stream size : 2.19 GiB (85%)
Default : Yes
Forced : No
Color range : Limited

Audio
ID : 2
Format : AAC LC
Codec ID : A_AAC-2
Duration : 2 h 21 min
Bit rate : 384 kb/s
Channel(s) : 6 channels
Channel layout : L R C Cb Lb Rb
Sampling rate : 48.0 kHz
Frame rate : 46.875 FPS (1024 SPF)
Compression mode : Lossy
Stream size : 390 MiB (15%)
Language : English
Default : Yes
Forced : No

Text
ID : 3
Format : UTF-8
Codec ID : S_TEXT/UTF8
Codec ID/Info : UTF-8 Plain Text
Duration : 2 h 13 min
Bit rate : 34 b/s
Frame rate : 0.127 FPS
Count of elements : 1015
Stream size : 34.0 KiB (0%)
Language : English
Default : Yes
Forced : No

[collapse]
Download Link(s)

Download

Direct download files get automatically deleted after a month or so. Posted on : 08/07/2023

[collapse]
Magnet Link

Magnet

King.Arthur.2004.DiRECTORS.CUT.1080p.BluRay.x264-SUNSPOT-10.13 GB

[collapse]

Media information

General
Format : Matroska
Format version : Version 4
File size : 1.35 GiB
Duration : 2 h 21 min
Overall bit rate : 1 361 kb/s
Frame rate : 23.976 FPS
Movie name : King.Arthur.2004.DIRECTORS.CUT.720p.10bit.BluRay.6CH.x265.HEVC

Video
ID : 1
Format : HEVC
Format/Info : High Efficiency Video Coding
Format profile : Main [email protected]@Main
Codec ID : V_MPEGH/ISO/HEVC
Duration : 2 h 21 min
Bit rate : 1 070 kb/s
Width : 1 280 pixels
Height : 544 pixels
Display aspect ratio : 2.35:1
Frame rate mode : Constant
Frame rate : 23.976 (24000/1001) FPS
Color space : YUV
Chroma subsampling : 4:2:0 (Type 0)
Bit depth : 10 bits
Bits/(Pixel*Frame) : 0.064
Stream size : 1.06 GiB (79%)
Default : Yes
Forced : No
Color range : Limited

Audio
ID : 2
Format : AAC LC
Codec ID : A_AAC-2
Duration : 2 h 21 min
Bit rate : 288 kb/s
Channel(s) : 6 channels
Channel layout : L R C Cb Lb Rb
Sampling rate : 48.0 kHz
Frame rate : 46.875 FPS (1024 SPF)
Compression mode : Lossy
Stream size : 293 MiB (21%)
Language : English
Default : Yes
Forced : No

Text
ID : 3
Format : UTF-8
Codec ID : S_TEXT/UTF8
Codec ID/Info : UTF-8 Plain Text
Duration : 2 h 13 min
Bit rate : 34 b/s
Frame rate : 0.127 FPS
Count of elements : 1015
Stream size : 34.0 KiB (0%)
Language : English
Default : Yes
Forced : No

[collapse]
Download Link(s)

Download

Direct download files get automatically deleted after a month or so. Posted on : 08/07/2023

[collapse]
Magnet Link

Magnet

King.Arthur.2004.DiRECTORS.CUT.1080p.BluRay.x264-SUNSPOT-10.13 GB

[collapse]

You may also like...

error: nah :p~