Killers of the Flower Moon (2023)

R | 3h 20min | Crime, Drama, History

When oil is discovered in 1920s Oklahoma under Osage Nation land, the Osage people are murdered one by one – until the FBI steps in to unravel the mystery.

Watch trailer

Media information

General
Format : Matroska
Format version : Version 4
File size : 4.15 GiB
Duration : 3 h 26 min
Overall bit rate : 2 885 kb/s
Frame rate : 23.976 FPS
Movie name : Killers.of.the.Flower.Moon.2023.2160p.HDR10Plus.DV.WEBRip.6CH.x265.HEVC

Video
ID : 1
Format : HEVC
Format/Info : High Efficiency Video Coding
Format profile : Main 10@L5@Main
HDR format : Dolby Vision, Version 1.0, dvhe.08.06, BL+RPU, HDR10 compatible / SMPTE ST 2094 App 4, Version 1, HDR10+ Profile B compatible
Codec ID : V_MPEGH/ISO/HEVC
Duration : 3 h 26 min
Bit rate : 2 707 kb/s
Width : 3 840 pixels
Height : 1 608 pixels
Display aspect ratio : 2.40:1
Frame rate mode : Constant
Frame rate : 23.976 (24000/1001) FPS
Color space : YUV
Chroma subsampling : 4:2:0 (Type 2)
Bit depth : 10 bits
Bits/(Pixel*Frame) : 0.018
Stream size : 3.90 GiB (94%)
Default : Yes
Forced : No
Color range : Limited
Color primaries : BT.2020
Transfer characteristics : PQ
Matrix coefficients : BT.2020 non-constant
Mastering display color primaries : Display P3
Mastering display luminance : min: 0.0050 cd/m2, max: 1000 cd/m2
Maximum Content Light Level : 1342 cd/m2
Maximum Frame-Average Light Level : 144 cd/m2

Audio
ID : 2
Format : AAC LC SBR
Commercial name : HE-AAC
Format settings : Explicit
Codec ID : A_AAC-2
Duration : 3 h 26 min
Bit rate : 171 kb/s
Channel(s) : 6 channels
Channel layout : C L R Ls Rs LFE
Sampling rate : 48.0 kHz
Frame rate : 23.438 FPS (2048 SPF)
Compression mode : Lossy
Delay relative to video : 23 ms
Stream size : 252 MiB (6%)
Language : English
Default : Yes
Forced : No

Text #1
ID : 3
Format : UTF-8
Codec ID : S_TEXT/UTF8
Codec ID/Info : UTF-8 Plain Text
Duration : 3 h 16 min
Bit rate : 59 b/s
Frame rate : 0.208 FPS
Count of elements : 2448
Stream size : 86.2 KiB (0%)
Language : English
Default : No
Forced : No

Text #2
ID : 4
Format : UTF-8
Codec ID : S_TEXT/UTF8
Codec ID/Info : UTF-8 Plain Text
Duration : 2 h 48 min
Bit rate : 1 b/s
Frame rate : 0.007 FPS
Count of elements : 72
Stream size : 1.65 KiB (0%)
Title : Forced
Language : English
Default : No
Forced : Yes

Text #3
ID : 5
Format : UTF-8
Codec ID : S_TEXT/UTF8
Codec ID/Info : UTF-8 Plain Text
Duration : 3 h 17 min
Bit rate : 67 b/s
Frame rate : 0.236 FPS
Count of elements : 2801
Stream size : 98.0 KiB (0%)
Title : SDH
Language : English
Default : Yes
Forced : No

Text #4
ID : 6
Format : UTF-8
Codec ID : S_TEXT/UTF8
Codec ID/Info : UTF-8 Plain Text
Duration : 3 h 24 min
Bit rate : 82 b/s
Frame rate : 0.195 FPS
Count of elements : 2389
Stream size : 123 KiB (0%)
Language : Arabic
Default : No
Forced : No

Text #5
ID : 7
Format : UTF-8
Codec ID : S_TEXT/UTF8
Codec ID/Info : UTF-8 Plain Text
Duration : 3 h 24 min
Bit rate : 74 b/s
Frame rate : 0.172 FPS
Count of elements : 2106
Stream size : 112 KiB (0%)
Language : Bulgarian
Default : No
Forced : No

Text #6
ID : 8
Format : UTF-8
Codec ID : S_TEXT/UTF8
Codec ID/Info : UTF-8 Plain Text
Duration : 3 h 24 min
Bit rate : 46 b/s
Frame rate : 0.195 FPS
Count of elements : 2389
Stream size : 69.7 KiB (0%)
Title : Simplified
Language : Chinese (Simplified)
Default : No
Forced : No

Text #7
ID : 9
Format : UTF-8
Codec ID : S_TEXT/UTF8
Codec ID/Info : UTF-8 Plain Text
Duration : 3 h 24 min
Bit rate : 48 b/s
Frame rate : 0.195 FPS
Count of elements : 2391
Stream size : 72.5 KiB (0%)
Title : Traditional
Language : Chinese (Traditional)
Default : No
Forced : No

Text #8
ID : 10
Format : UTF-8
Codec ID : S_TEXT/UTF8
Codec ID/Info : UTF-8 Plain Text
Duration : 3 h 24 min
Bit rate : 50 b/s
Frame rate : 0.187 FPS
Count of elements : 2294
Stream size : 76.1 KiB (0%)
Language : Czech
Default : No
Forced : No

Text #9
ID : 11
Format : UTF-8
Codec ID : S_TEXT/UTF8
Codec ID/Info : UTF-8 Plain Text
Duration : 3 h 24 min
Bit rate : 48 b/s
Frame rate : 0.159 FPS
Count of elements : 1958
Stream size : 73.4 KiB (0%)
Language : Danish
Default : No
Forced : No

Text #10
ID : 12
Format : UTF-8
Codec ID : S_TEXT/UTF8
Codec ID/Info : UTF-8 Plain Text
Duration : 3 h 24 min
Bit rate : 48 b/s
Frame rate : 0.207 FPS
Count of elements : 2544
Stream size : 73.2 KiB (0%)
Language : German
Default : No
Forced : No

Text #11
ID : 13
Format : UTF-8
Codec ID : S_TEXT/UTF8
Codec ID/Info : UTF-8 Plain Text
Duration : 3 h 24 min
Bit rate : 90 b/s
Frame rate : 0.194 FPS
Count of elements : 2378
Stream size : 135 KiB (0%)
Language : Greek
Default : No
Forced : No

Text #12
ID : 14
Format : UTF-8
Codec ID : S_TEXT/UTF8
Codec ID/Info : UTF-8 Plain Text
Duration : 3 h 24 min
Bit rate : 55 b/s
Frame rate : 0.197 FPS
Count of elements : 2418
Stream size : 83.2 KiB (0%)
Title : Latin American
Language : Spanish (Latin America)
Default : No
Forced : No

Text #13
ID : 15
Format : UTF-8
Codec ID : S_TEXT/UTF8
Codec ID/Info : UTF-8 Plain Text
Duration : 3 h 24 min
Bit rate : 54 b/s
Frame rate : 0.196 FPS
Count of elements : 2407
Stream size : 82.2 KiB (0%)
Language : Spanish (ES)
Default : No
Forced : No

Text #14
ID : 16
Format : UTF-8
Codec ID : S_TEXT/UTF8
Codec ID/Info : UTF-8 Plain Text
Duration : 3 h 24 min
Bit rate : 52 b/s
Frame rate : 0.191 FPS
Count of elements : 2343
Stream size : 78.1 KiB (0%)
Language : Estonian
Default : No
Forced : No

Text #15
ID : 17
Format : UTF-8
Codec ID : S_TEXT/UTF8
Codec ID/Info : UTF-8 Plain Text
Duration : 3 h 24 min
Bit rate : 51 b/s
Frame rate : 0.185 FPS
Count of elements : 2267
Stream size : 76.7 KiB (0%)
Language : Finnish
Default : No
Forced : No

Text #16
ID : 18
Format : UTF-8
Codec ID : S_TEXT/UTF8
Codec ID/Info : UTF-8 Plain Text
Duration : 3 h 24 min
Bit rate : 48 b/s
Frame rate : 0.205 FPS
Count of elements : 2520
Stream size : 72.2 KiB (0%)
Title : Canadian
Language : French (CA)
Default : No
Forced : No

Text #17
ID : 19
Format : UTF-8
Codec ID : S_TEXT/UTF8
Codec ID/Info : UTF-8 Plain Text
Duration : 3 h 24 min
Bit rate : 48 b/s
Frame rate : 0.205 FPS
Count of elements : 2519
Stream size : 72.2 KiB (0%)
Language : French (FR)
Default : No
Forced : No

Text #18
ID : 20
Format : UTF-8
Codec ID : S_TEXT/UTF8
Codec ID/Info : UTF-8 Plain Text
Duration : 3 h 24 min
Bit rate : 79 b/s
Frame rate : 0.195 FPS
Count of elements : 2391
Stream size : 119 KiB (0%)
Language : Hebrew
Default : No
Forced : No

Text #19
ID : 21
Format : UTF-8
Codec ID : S_TEXT/UTF8
Codec ID/Info : UTF-8 Plain Text
Duration : 3 h 24 min
Bit rate : 154 b/s
Frame rate : 0.195 FPS
Count of elements : 2394
Stream size : 232 KiB (0%)
Language : Hindi
Default : No
Forced : No

Text #20
ID : 22
Format : UTF-8
Codec ID : S_TEXT/UTF8
Codec ID/Info : UTF-8 Plain Text
Duration : 3 h 24 min
Bit rate : 55 b/s
Frame rate : 0.194 FPS
Count of elements : 2379
Stream size : 83.5 KiB (0%)
Language : Hungarian
Default : No
Forced : No

Text #21
ID : 23
Format : UTF-8
Codec ID : S_TEXT/UTF8
Codec ID/Info : UTF-8 Plain Text
Duration : 3 h 24 min
Bit rate : 54 b/s
Frame rate : 0.195 FPS
Count of elements : 2391
Stream size : 82.3 KiB (0%)
Language : Indonesian
Default : No
Forced : No

Text #22
ID : 24
Format : UTF-8
Codec ID : S_TEXT/UTF8
Codec ID/Info : UTF-8 Plain Text
Duration : 3 h 21 min
Bit rate : 56 b/s
Frame rate : 0.193 FPS
Count of elements : 2330
Stream size : 84.1 KiB (0%)
Language : Italian
Default : No
Forced : No

Text #23
ID : 25
Format : UTF-8
Codec ID : S_TEXT/UTF8
Codec ID/Info : UTF-8 Plain Text
Duration : 3 h 24 min
Bit rate : 52 b/s
Frame rate : 0.195 FPS
Count of elements : 2394
Stream size : 78.8 KiB (0%)
Language : Korean
Default : No
Forced : No

Text #24
ID : 26
Format : UTF-8
Codec ID : S_TEXT/UTF8
Codec ID/Info : UTF-8 Plain Text
Duration : 3 h 24 min
Bit rate : 50 b/s
Frame rate : 0.195 FPS
Count of elements : 2390
Stream size : 76.3 KiB (0%)
Language : Lithuanian
Default : No
Forced : No

Text #25
ID : 27
Format : UTF-8
Codec ID : S_TEXT/UTF8
Codec ID/Info : UTF-8 Plain Text
Duration : 3 h 24 min
Bit rate : 55 b/s
Frame rate : 0.195 FPS
Count of elements : 2394
Stream size : 83.4 KiB (0%)
Language : Latvian
Default : No
Forced : No

Text #26
ID : 28
Format : UTF-8
Codec ID : S_TEXT/UTF8
Codec ID/Info : UTF-8 Plain Text
Duration : 3 h 24 min
Bit rate : 54 b/s
Frame rate : 0.195 FPS
Count of elements : 2388
Stream size : 82.1 KiB (0%)
Language : Malay
Default : No
Forced : No

Text #27
ID : 29
Format : UTF-8
Codec ID : S_TEXT/UTF8
Codec ID/Info : UTF-8 Plain Text
Duration : 3 h 24 min
Bit rate : 49 b/s
Frame rate : 0.163 FPS
Count of elements : 1999
Stream size : 74.4 KiB (0%)
Language : Dutch
Default : No
Forced : No

Text #28
ID : 30
Format : UTF-8
Codec ID : S_TEXT/UTF8
Codec ID/Info : UTF-8 Plain Text
Duration : 3 h 24 min
Bit rate : 51 b/s
Frame rate : 0.181 FPS
Count of elements : 2224
Stream size : 76.7 KiB (0%)
Language : Norwegian
Default : No
Forced : No

Text #29
ID : 31
Format : UTF-8
Codec ID : S_TEXT/UTF8
Codec ID/Info : UTF-8 Plain Text
Duration : 3 h 24 min
Bit rate : 54 b/s
Frame rate : 0.194 FPS
Count of elements : 2378
Stream size : 80.9 KiB (0%)
Language : Polish
Default : No
Forced : No

Text #30
ID : 32
Format : UTF-8
Codec ID : S_TEXT/UTF8
Codec ID/Info : UTF-8 Plain Text
Duration : 3 h 24 min
Bit rate : 51 b/s
Frame rate : 0.194 FPS
Count of elements : 2378
Stream size : 77.8 KiB (0%)
Language : Portuguese
Default : No
Forced : No

Text #31
ID : 33
Format : UTF-8
Codec ID : S_TEXT/UTF8
Codec ID/Info : UTF-8 Plain Text
Duration : 3 h 24 min
Bit rate : 82 b/s
Frame rate : 0.195 FPS
Count of elements : 2390
Stream size : 123 KiB (0%)
Language : Russian
Default : No
Forced : No

Text #32
ID : 34
Format : UTF-8
Codec ID : S_TEXT/UTF8
Codec ID/Info : UTF-8 Plain Text
Duration : 3 h 24 min
Bit rate : 51 b/s
Frame rate : 0.193 FPS
Count of elements : 2374
Stream size : 76.6 KiB (0%)
Language : Slovak
Default : No
Forced : No

Text #33
ID : 35
Format : UTF-8
Codec ID : S_TEXT/UTF8
Codec ID/Info : UTF-8 Plain Text
Duration : 3 h 24 min
Bit rate : 45 b/s
Frame rate : 0.181 FPS
Count of elements : 2225
Stream size : 67.9 KiB (0%)
Language : Slovenian
Default : No
Forced : No

Text #34
ID : 36
Format : UTF-8
Codec ID : S_TEXT/UTF8
Codec ID/Info : UTF-8 Plain Text
Duration : 3 h 24 min
Bit rate : 54 b/s
Frame rate : 0.195 FPS
Count of elements : 2390
Stream size : 82.3 KiB (0%)
Language : Swedish
Default : No
Forced : No

Text #35
ID : 37
Format : UTF-8
Codec ID : S_TEXT/UTF8
Codec ID/Info : UTF-8 Plain Text
Duration : 3 h 24 min
Bit rate : 172 b/s
Frame rate : 0.195 FPS
Count of elements : 2394
Stream size : 259 KiB (0%)
Language : Tamil
Default : No
Forced : No

Text #36
ID : 38
Format : UTF-8
Codec ID : S_TEXT/UTF8
Codec ID/Info : UTF-8 Plain Text
Duration : 3 h 24 min
Bit rate : 169 b/s
Frame rate : 0.195 FPS
Count of elements : 2395
Stream size : 254 KiB (0%)
Language : Telugu
Default : No
Forced : No

Text #37
ID : 39
Format : UTF-8
Codec ID : S_TEXT/UTF8
Codec ID/Info : UTF-8 Plain Text
Duration : 3 h 24 min
Bit rate : 132 b/s
Frame rate : 0.195 FPS
Count of elements : 2395
Stream size : 198 KiB (0%)
Language : Thai
Default : No
Forced : No

Text #38
ID : 40
Format : UTF-8
Codec ID : S_TEXT/UTF8
Codec ID/Info : UTF-8 Plain Text
Duration : 3 h 24 min
Bit rate : 54 b/s
Frame rate : 0.189 FPS
Count of elements : 2318
Stream size : 82.4 KiB (0%)
Language : Turkish
Default : No
Forced : No

Text #39
ID : 41
Format : UTF-8
Codec ID : S_TEXT/UTF8
Codec ID/Info : UTF-8 Plain Text
Duration : 3 h 24 min
Bit rate : 83 b/s
Frame rate : 0.194 FPS
Count of elements : 2386
Stream size : 125 KiB (0%)
Language : Ukrainian
Default : No
Forced : No

Text #40
ID : 42
Format : UTF-8
Codec ID : S_TEXT/UTF8
Codec ID/Info : UTF-8 Plain Text
Duration : 3 h 24 min
Bit rate : 68 b/s
Frame rate : 0.195 FPS
Count of elements : 2392
Stream size : 102 KiB (0%)
Language : Vietnamese
Default : No
Forced : No

Text #41
ID : 43
Format : UTF-8
Codec ID : S_TEXT/UTF8
Codec ID/Info : UTF-8 Plain Text
Duration : 3 h 24 min
Bit rate : 43 b/s
Frame rate : 0.195 FPS
Count of elements : 2392
Stream size : 65.6 KiB (0%)
Title : Traditional
Language : Cantonese (Hant)
Default : No
Forced : No

[collapse]
Download Link(s)

Download

Direct download files get automatically deleted after a month or so. Posted on : 12/05/2023

[collapse]
Magnet Link

Magnet

Killers.of.the.Flower.Moon.2023.2160p.HDR10Plus.DV.WEBRip.6CH.x265.HEVC-PSA-4.15 GB

[collapse]

Media information

General
Format : Matroska
Format version : Version 4
File size : 2.86 GiB
Duration : 3 h 28 min
Overall bit rate : 1 969 kb/s
Frame rate : 23.976 FPS
Movie name : Killers.of.the.Flower.Moon.2023.1080p.10bit.WEBRip.6CH.x265.HEVC

Video
ID : 1
Format : HEVC
Format/Info : High Efficiency Video Coding
Format profile : Main 10@L4@Main
Codec ID : V_MPEGH/ISO/HEVC
Duration : 3 h 28 min
Bit rate : 1 793 kb/s
Width : 1 920 pixels
Height : 800 pixels
Display aspect ratio : 2.40:1
Frame rate mode : Constant
Frame rate : 23.976 (24000/1001) FPS
Color space : YUV
Chroma subsampling : 4:2:0
Bit depth : 10 bits
Bits/(Pixel*Frame) : 0.049
Stream size : 2.61 GiB (91%)
Default : Yes
Forced : No
Color range : Limited
Color primaries : BT.709
Transfer characteristics : BT.709
Matrix coefficients : BT.709

Audio
ID : 2
Format : AAC LC SBR
Commercial name : HE-AAC
Format settings : Explicit
Codec ID : A_AAC-2
Duration : 3 h 26 min
Bit rate : 171 kb/s
Channel(s) : 6 channels
Channel layout : C L R Ls Rs LFE
Sampling rate : 48.0 kHz
Frame rate : 23.438 FPS (2048 SPF)
Compression mode : Lossy
Delay relative to video : 23 ms
Stream size : 252 MiB (9%)
Language : English
Default : Yes
Forced : No

Text #1
ID : 3
Format : UTF-8
Codec ID : S_TEXT/UTF8
Codec ID/Info : UTF-8 Plain Text
Duration : 3 h 16 min
Bit rate : 59 b/s
Frame rate : 0.208 FPS
Count of elements : 2448
Stream size : 86.2 KiB (0%)
Language : English
Default : No
Forced : No

Text #2
ID : 4
Format : UTF-8
Codec ID : S_TEXT/UTF8
Codec ID/Info : UTF-8 Plain Text
Duration : 2 h 48 min
Bit rate : 1 b/s
Frame rate : 0.007 FPS
Count of elements : 72
Stream size : 1.65 KiB (0%)
Title : Forced
Language : English
Default : No
Forced : Yes

Text #3
ID : 5
Format : UTF-8
Codec ID : S_TEXT/UTF8
Codec ID/Info : UTF-8 Plain Text
Duration : 3 h 17 min
Bit rate : 67 b/s
Frame rate : 0.236 FPS
Count of elements : 2801
Stream size : 98.0 KiB (0%)
Title : SDH
Language : English
Default : Yes
Forced : No

Text #4
ID : 6
Format : UTF-8
Codec ID : S_TEXT/UTF8
Codec ID/Info : UTF-8 Plain Text
Duration : 3 h 24 min
Bit rate : 82 b/s
Frame rate : 0.195 FPS
Count of elements : 2389
Stream size : 123 KiB (0%)
Language : Arabic
Default : No
Forced : No

Text #5
ID : 7
Format : UTF-8
Codec ID : S_TEXT/UTF8
Codec ID/Info : UTF-8 Plain Text
Duration : 3 h 24 min
Bit rate : 74 b/s
Frame rate : 0.172 FPS
Count of elements : 2106
Stream size : 112 KiB (0%)
Language : Bulgarian
Default : No
Forced : No

Text #6
ID : 8
Format : UTF-8
Codec ID : S_TEXT/UTF8
Codec ID/Info : UTF-8 Plain Text
Duration : 3 h 24 min
Bit rate : 46 b/s
Frame rate : 0.195 FPS
Count of elements : 2389
Stream size : 69.7 KiB (0%)
Title : Simplified
Language : Chinese (Simplified)
Default : No
Forced : No

Text #7
ID : 9
Format : UTF-8
Codec ID : S_TEXT/UTF8
Codec ID/Info : UTF-8 Plain Text
Duration : 3 h 24 min
Bit rate : 48 b/s
Frame rate : 0.195 FPS
Count of elements : 2391
Stream size : 72.5 KiB (0%)
Title : Traditional
Language : Chinese (Traditional)
Default : No
Forced : No

Text #8
ID : 10
Format : UTF-8
Codec ID : S_TEXT/UTF8
Codec ID/Info : UTF-8 Plain Text
Duration : 3 h 24 min
Bit rate : 50 b/s
Frame rate : 0.187 FPS
Count of elements : 2294
Stream size : 76.1 KiB (0%)
Language : Czech
Default : No
Forced : No

Text #9
ID : 11
Format : UTF-8
Codec ID : S_TEXT/UTF8
Codec ID/Info : UTF-8 Plain Text
Duration : 3 h 24 min
Bit rate : 48 b/s
Frame rate : 0.159 FPS
Count of elements : 1958
Stream size : 73.4 KiB (0%)
Language : Danish
Default : No
Forced : No

Text #10
ID : 12
Format : UTF-8
Codec ID : S_TEXT/UTF8
Codec ID/Info : UTF-8 Plain Text
Duration : 3 h 24 min
Bit rate : 48 b/s
Frame rate : 0.207 FPS
Count of elements : 2544
Stream size : 73.2 KiB (0%)
Language : German
Default : No
Forced : No

Text #11
ID : 13
Format : UTF-8
Codec ID : S_TEXT/UTF8
Codec ID/Info : UTF-8 Plain Text
Duration : 3 h 24 min
Bit rate : 90 b/s
Frame rate : 0.194 FPS
Count of elements : 2378
Stream size : 135 KiB (0%)
Language : Greek
Default : No
Forced : No

Text #12
ID : 14
Format : UTF-8
Codec ID : S_TEXT/UTF8
Codec ID/Info : UTF-8 Plain Text
Duration : 3 h 24 min
Bit rate : 55 b/s
Frame rate : 0.197 FPS
Count of elements : 2418
Stream size : 83.2 KiB (0%)
Title : Latin American
Language : Spanish (Latin America)
Default : No
Forced : No

Text #13
ID : 15
Format : UTF-8
Codec ID : S_TEXT/UTF8
Codec ID/Info : UTF-8 Plain Text
Duration : 3 h 24 min
Bit rate : 54 b/s
Frame rate : 0.196 FPS
Count of elements : 2407
Stream size : 82.2 KiB (0%)
Language : Spanish (ES)
Default : No
Forced : No

Text #14
ID : 16
Format : UTF-8
Codec ID : S_TEXT/UTF8
Codec ID/Info : UTF-8 Plain Text
Duration : 3 h 24 min
Bit rate : 52 b/s
Frame rate : 0.191 FPS
Count of elements : 2343
Stream size : 78.1 KiB (0%)
Language : Estonian
Default : No
Forced : No

Text #15
ID : 17
Format : UTF-8
Codec ID : S_TEXT/UTF8
Codec ID/Info : UTF-8 Plain Text
Duration : 3 h 24 min
Bit rate : 51 b/s
Frame rate : 0.185 FPS
Count of elements : 2267
Stream size : 76.7 KiB (0%)
Language : Finnish
Default : No
Forced : No

Text #16
ID : 18
Format : UTF-8
Codec ID : S_TEXT/UTF8
Codec ID/Info : UTF-8 Plain Text
Duration : 3 h 24 min
Bit rate : 48 b/s
Frame rate : 0.205 FPS
Count of elements : 2520
Stream size : 72.2 KiB (0%)
Title : Canadian
Language : French (CA)
Default : No
Forced : No

Text #17
ID : 19
Format : UTF-8
Codec ID : S_TEXT/UTF8
Codec ID/Info : UTF-8 Plain Text
Duration : 3 h 24 min
Bit rate : 48 b/s
Frame rate : 0.205 FPS
Count of elements : 2519
Stream size : 72.2 KiB (0%)
Language : French (FR)
Default : No
Forced : No

Text #18
ID : 20
Format : UTF-8
Codec ID : S_TEXT/UTF8
Codec ID/Info : UTF-8 Plain Text
Duration : 3 h 24 min
Bit rate : 79 b/s
Frame rate : 0.195 FPS
Count of elements : 2391
Stream size : 119 KiB (0%)
Language : Hebrew
Default : No
Forced : No

Text #19
ID : 21
Format : UTF-8
Codec ID : S_TEXT/UTF8
Codec ID/Info : UTF-8 Plain Text
Duration : 3 h 24 min
Bit rate : 154 b/s
Frame rate : 0.195 FPS
Count of elements : 2394
Stream size : 232 KiB (0%)
Language : Hindi
Default : No
Forced : No

Text #20
ID : 22
Format : UTF-8
Codec ID : S_TEXT/UTF8
Codec ID/Info : UTF-8 Plain Text
Duration : 3 h 24 min
Bit rate : 55 b/s
Frame rate : 0.194 FPS
Count of elements : 2379
Stream size : 83.5 KiB (0%)
Language : Hungarian
Default : No
Forced : No

Text #21
ID : 23
Format : UTF-8
Codec ID : S_TEXT/UTF8
Codec ID/Info : UTF-8 Plain Text
Duration : 3 h 24 min
Bit rate : 54 b/s
Frame rate : 0.195 FPS
Count of elements : 2391
Stream size : 82.3 KiB (0%)
Language : Indonesian
Default : No
Forced : No

Text #22
ID : 24
Format : UTF-8
Codec ID : S_TEXT/UTF8
Codec ID/Info : UTF-8 Plain Text
Duration : 3 h 21 min
Bit rate : 56 b/s
Frame rate : 0.193 FPS
Count of elements : 2330
Stream size : 84.1 KiB (0%)
Language : Italian
Default : No
Forced : No

Text #23
ID : 25
Format : UTF-8
Codec ID : S_TEXT/UTF8
Codec ID/Info : UTF-8 Plain Text
Duration : 3 h 24 min
Bit rate : 52 b/s
Frame rate : 0.195 FPS
Count of elements : 2394
Stream size : 78.8 KiB (0%)
Language : Korean
Default : No
Forced : No

Text #24
ID : 26
Format : UTF-8
Codec ID : S_TEXT/UTF8
Codec ID/Info : UTF-8 Plain Text
Duration : 3 h 24 min
Bit rate : 50 b/s
Frame rate : 0.195 FPS
Count of elements : 2390
Stream size : 76.3 KiB (0%)
Language : Lithuanian
Default : No
Forced : No

Text #25
ID : 27
Format : UTF-8
Codec ID : S_TEXT/UTF8
Codec ID/Info : UTF-8 Plain Text
Duration : 3 h 24 min
Bit rate : 55 b/s
Frame rate : 0.195 FPS
Count of elements : 2394
Stream size : 83.4 KiB (0%)
Language : Latvian
Default : No
Forced : No

Text #26
ID : 28
Format : UTF-8
Codec ID : S_TEXT/UTF8
Codec ID/Info : UTF-8 Plain Text
Duration : 3 h 24 min
Bit rate : 54 b/s
Frame rate : 0.195 FPS
Count of elements : 2388
Stream size : 82.1 KiB (0%)
Language : Malay
Default : No
Forced : No

Text #27
ID : 29
Format : UTF-8
Codec ID : S_TEXT/UTF8
Codec ID/Info : UTF-8 Plain Text
Duration : 3 h 24 min
Bit rate : 49 b/s
Frame rate : 0.163 FPS
Count of elements : 1999
Stream size : 74.4 KiB (0%)
Language : Dutch
Default : No
Forced : No

Text #28
ID : 30
Format : UTF-8
Codec ID : S_TEXT/UTF8
Codec ID/Info : UTF-8 Plain Text
Duration : 3 h 24 min
Bit rate : 51 b/s
Frame rate : 0.181 FPS
Count of elements : 2224
Stream size : 76.7 KiB (0%)
Language : Norwegian
Default : No
Forced : No

Text #29
ID : 31
Format : UTF-8
Codec ID : S_TEXT/UTF8
Codec ID/Info : UTF-8 Plain Text
Duration : 3 h 24 min
Bit rate : 54 b/s
Frame rate : 0.194 FPS
Count of elements : 2378
Stream size : 80.9 KiB (0%)
Language : Polish
Default : No
Forced : No

Text #30
ID : 32
Format : UTF-8
Codec ID : S_TEXT/UTF8
Codec ID/Info : UTF-8 Plain Text
Duration : 3 h 24 min
Bit rate : 51 b/s
Frame rate : 0.194 FPS
Count of elements : 2378
Stream size : 77.8 KiB (0%)
Language : Portuguese
Default : No
Forced : No

Text #31
ID : 33
Format : UTF-8
Codec ID : S_TEXT/UTF8
Codec ID/Info : UTF-8 Plain Text
Duration : 3 h 24 min
Bit rate : 82 b/s
Frame rate : 0.195 FPS
Count of elements : 2390
Stream size : 123 KiB (0%)
Language : Russian
Default : No
Forced : No

Text #32
ID : 34
Format : UTF-8
Codec ID : S_TEXT/UTF8
Codec ID/Info : UTF-8 Plain Text
Duration : 3 h 24 min
Bit rate : 51 b/s
Frame rate : 0.193 FPS
Count of elements : 2374
Stream size : 76.6 KiB (0%)
Language : Slovak
Default : No
Forced : No

Text #33
ID : 35
Format : UTF-8
Codec ID : S_TEXT/UTF8
Codec ID/Info : UTF-8 Plain Text
Duration : 3 h 24 min
Bit rate : 45 b/s
Frame rate : 0.181 FPS
Count of elements : 2225
Stream size : 67.9 KiB (0%)
Language : Slovenian
Default : No
Forced : No

Text #34
ID : 36
Format : UTF-8
Codec ID : S_TEXT/UTF8
Codec ID/Info : UTF-8 Plain Text
Duration : 3 h 24 min
Bit rate : 54 b/s
Frame rate : 0.195 FPS
Count of elements : 2390
Stream size : 82.3 KiB (0%)
Language : Swedish
Default : No
Forced : No

Text #35
ID : 37
Format : UTF-8
Codec ID : S_TEXT/UTF8
Codec ID/Info : UTF-8 Plain Text
Duration : 3 h 24 min
Bit rate : 172 b/s
Frame rate : 0.195 FPS
Count of elements : 2394
Stream size : 259 KiB (0%)
Language : Tamil
Default : No
Forced : No

Text #36
ID : 38
Format : UTF-8
Codec ID : S_TEXT/UTF8
Codec ID/Info : UTF-8 Plain Text
Duration : 3 h 24 min
Bit rate : 169 b/s
Frame rate : 0.195 FPS
Count of elements : 2395
Stream size : 254 KiB (0%)
Language : Telugu
Default : No
Forced : No

Text #37
ID : 39
Format : UTF-8
Codec ID : S_TEXT/UTF8
Codec ID/Info : UTF-8 Plain Text
Duration : 3 h 24 min
Bit rate : 132 b/s
Frame rate : 0.195 FPS
Count of elements : 2395
Stream size : 198 KiB (0%)
Language : Thai
Default : No
Forced : No

Text #38
ID : 40
Format : UTF-8
Codec ID : S_TEXT/UTF8
Codec ID/Info : UTF-8 Plain Text
Duration : 3 h 24 min
Bit rate : 54 b/s
Frame rate : 0.189 FPS
Count of elements : 2318
Stream size : 82.4 KiB (0%)
Language : Turkish
Default : No
Forced : No

Text #39
ID : 41
Format : UTF-8
Codec ID : S_TEXT/UTF8
Codec ID/Info : UTF-8 Plain Text
Duration : 3 h 24 min
Bit rate : 83 b/s
Frame rate : 0.194 FPS
Count of elements : 2386
Stream size : 125 KiB (0%)
Language : Ukrainian
Default : No
Forced : No

Text #40
ID : 42
Format : UTF-8
Codec ID : S_TEXT/UTF8
Codec ID/Info : UTF-8 Plain Text
Duration : 3 h 24 min
Bit rate : 68 b/s
Frame rate : 0.195 FPS
Count of elements : 2392
Stream size : 102 KiB (0%)
Language : Vietnamese
Default : No
Forced : No

Text #41
ID : 43
Format : UTF-8
Codec ID : S_TEXT/UTF8
Codec ID/Info : UTF-8 Plain Text
Duration : 3 h 24 min
Bit rate : 43 b/s
Frame rate : 0.195 FPS
Count of elements : 2392
Stream size : 65.6 KiB (0%)
Title : Traditional
Language : Cantonese (Hant)
Default : No
Forced : No

[collapse]
Download Link(s)

Download

Direct download files get automatically deleted after a month or so. Posted on : 12/04/2023

[collapse]
Magnet Link

Magnet

Killers.of.the.Flower.Moon.2023.1080p.10bit.WEBRip.6CH.x265.HEVC-PSA-2.86 GB

[collapse]

Media information

General
Format : Matroska
Format version : Version 4
File size : 1.28 GiB
Duration : 3 h 28 min
Overall bit rate : 878 kb/s
Frame rate : 23.976 FPS
Movie name : Killers.of.the.Flower.Moon.2023.720p.10bit.WEBRip.6CH.x265.HEVC

Video
ID : 1
Format : HEVC
Format/Info : High Efficiency Video Coding
Format profile : Main [email protected]@Main
Codec ID : V_MPEGH/ISO/HEVC
Duration : 3 h 28 min
Bit rate : 702 kb/s
Width : 1 280 pixels
Height : 536 pixels
Display aspect ratio : 2.40:1
Frame rate mode : Constant
Frame rate : 23.976 (24000/1001) FPS
Color space : YUV
Chroma subsampling : 4:2:0
Bit depth : 10 bits
Bits/(Pixel*Frame) : 0.043
Stream size : 1.02 GiB (80%)
Default : Yes
Forced : No
Color range : Limited
Color primaries : BT.709
Transfer characteristics : BT.709
Matrix coefficients : BT.709

Audio
ID : 2
Format : AAC LC SBR
Commercial name : HE-AAC
Format settings : Explicit
Codec ID : A_AAC-2
Duration : 3 h 26 min
Bit rate : 171 kb/s
Channel(s) : 6 channels
Channel layout : C L R Ls Rs LFE
Sampling rate : 48.0 kHz
Frame rate : 23.438 FPS (2048 SPF)
Compression mode : Lossy
Delay relative to video : 23 ms
Stream size : 252 MiB (19%)
Language : English
Default : Yes
Forced : No

Text #1
ID : 3
Format : UTF-8
Codec ID : S_TEXT/UTF8
Codec ID/Info : UTF-8 Plain Text
Duration : 3 h 16 min
Bit rate : 59 b/s
Frame rate : 0.208 FPS
Count of elements : 2448
Stream size : 86.2 KiB (0%)
Language : English
Default : No
Forced : No

Text #2
ID : 4
Format : UTF-8
Codec ID : S_TEXT/UTF8
Codec ID/Info : UTF-8 Plain Text
Duration : 2 h 48 min
Bit rate : 1 b/s
Frame rate : 0.007 FPS
Count of elements : 72
Stream size : 1.65 KiB (0%)
Title : Forced
Language : English
Default : No
Forced : Yes

Text #3
ID : 5
Format : UTF-8
Codec ID : S_TEXT/UTF8
Codec ID/Info : UTF-8 Plain Text
Duration : 3 h 17 min
Bit rate : 67 b/s
Frame rate : 0.236 FPS
Count of elements : 2801
Stream size : 98.0 KiB (0%)
Title : SDH
Language : English
Default : Yes
Forced : No

Text #4
ID : 6
Format : UTF-8
Codec ID : S_TEXT/UTF8
Codec ID/Info : UTF-8 Plain Text
Duration : 3 h 24 min
Bit rate : 82 b/s
Frame rate : 0.195 FPS
Count of elements : 2389
Stream size : 123 KiB (0%)
Language : Arabic
Default : No
Forced : No

Text #5
ID : 7
Format : UTF-8
Codec ID : S_TEXT/UTF8
Codec ID/Info : UTF-8 Plain Text
Duration : 3 h 24 min
Bit rate : 74 b/s
Frame rate : 0.172 FPS
Count of elements : 2106
Stream size : 112 KiB (0%)
Language : Bulgarian
Default : No
Forced : No

Text #6
ID : 8
Format : UTF-8
Codec ID : S_TEXT/UTF8
Codec ID/Info : UTF-8 Plain Text
Duration : 3 h 24 min
Bit rate : 46 b/s
Frame rate : 0.195 FPS
Count of elements : 2389
Stream size : 69.7 KiB (0%)
Title : Simplified
Language : Chinese (Simplified)
Default : No
Forced : No

Text #7
ID : 9
Format : UTF-8
Codec ID : S_TEXT/UTF8
Codec ID/Info : UTF-8 Plain Text
Duration : 3 h 24 min
Bit rate : 48 b/s
Frame rate : 0.195 FPS
Count of elements : 2391
Stream size : 72.5 KiB (0%)
Title : Traditional
Language : Chinese (Traditional)
Default : No
Forced : No

Text #8
ID : 10
Format : UTF-8
Codec ID : S_TEXT/UTF8
Codec ID/Info : UTF-8 Plain Text
Duration : 3 h 24 min
Bit rate : 50 b/s
Frame rate : 0.187 FPS
Count of elements : 2294
Stream size : 76.1 KiB (0%)
Language : Czech
Default : No
Forced : No

Text #9
ID : 11
Format : UTF-8
Codec ID : S_TEXT/UTF8
Codec ID/Info : UTF-8 Plain Text
Duration : 3 h 24 min
Bit rate : 48 b/s
Frame rate : 0.159 FPS
Count of elements : 1958
Stream size : 73.4 KiB (0%)
Language : Danish
Default : No
Forced : No

Text #10
ID : 12
Format : UTF-8
Codec ID : S_TEXT/UTF8
Codec ID/Info : UTF-8 Plain Text
Duration : 3 h 24 min
Bit rate : 48 b/s
Frame rate : 0.207 FPS
Count of elements : 2544
Stream size : 73.2 KiB (0%)
Language : German
Default : No
Forced : No

Text #11
ID : 13
Format : UTF-8
Codec ID : S_TEXT/UTF8
Codec ID/Info : UTF-8 Plain Text
Duration : 3 h 24 min
Bit rate : 90 b/s
Frame rate : 0.194 FPS
Count of elements : 2378
Stream size : 135 KiB (0%)
Language : Greek
Default : No
Forced : No

Text #12
ID : 14
Format : UTF-8
Codec ID : S_TEXT/UTF8
Codec ID/Info : UTF-8 Plain Text
Duration : 3 h 24 min
Bit rate : 55 b/s
Frame rate : 0.197 FPS
Count of elements : 2418
Stream size : 83.2 KiB (0%)
Title : Latin American
Language : Spanish (Latin America)
Default : No
Forced : No

Text #13
ID : 15
Format : UTF-8
Codec ID : S_TEXT/UTF8
Codec ID/Info : UTF-8 Plain Text
Duration : 3 h 24 min
Bit rate : 54 b/s
Frame rate : 0.196 FPS
Count of elements : 2407
Stream size : 82.2 KiB (0%)
Language : Spanish (ES)
Default : No
Forced : No

Text #14
ID : 16
Format : UTF-8
Codec ID : S_TEXT/UTF8
Codec ID/Info : UTF-8 Plain Text
Duration : 3 h 24 min
Bit rate : 52 b/s
Frame rate : 0.191 FPS
Count of elements : 2343
Stream size : 78.1 KiB (0%)
Language : Estonian
Default : No
Forced : No

Text #15
ID : 17
Format : UTF-8
Codec ID : S_TEXT/UTF8
Codec ID/Info : UTF-8 Plain Text
Duration : 3 h 24 min
Bit rate : 51 b/s
Frame rate : 0.185 FPS
Count of elements : 2267
Stream size : 76.7 KiB (0%)
Language : Finnish
Default : No
Forced : No

Text #16
ID : 18
Format : UTF-8
Codec ID : S_TEXT/UTF8
Codec ID/Info : UTF-8 Plain Text
Duration : 3 h 24 min
Bit rate : 48 b/s
Frame rate : 0.205 FPS
Count of elements : 2520
Stream size : 72.2 KiB (0%)
Title : Canadian
Language : French (CA)
Default : No
Forced : No

Text #17
ID : 19
Format : UTF-8
Codec ID : S_TEXT/UTF8
Codec ID/Info : UTF-8 Plain Text
Duration : 3 h 24 min
Bit rate : 48 b/s
Frame rate : 0.205 FPS
Count of elements : 2519
Stream size : 72.2 KiB (0%)
Language : French (FR)
Default : No
Forced : No

Text #18
ID : 20
Format : UTF-8
Codec ID : S_TEXT/UTF8
Codec ID/Info : UTF-8 Plain Text
Duration : 3 h 24 min
Bit rate : 79 b/s
Frame rate : 0.195 FPS
Count of elements : 2391
Stream size : 119 KiB (0%)
Language : Hebrew
Default : No
Forced : No

Text #19
ID : 21
Format : UTF-8
Codec ID : S_TEXT/UTF8
Codec ID/Info : UTF-8 Plain Text
Duration : 3 h 24 min
Bit rate : 154 b/s
Frame rate : 0.195 FPS
Count of elements : 2394
Stream size : 232 KiB (0%)
Language : Hindi
Default : No
Forced : No

Text #20
ID : 22
Format : UTF-8
Codec ID : S_TEXT/UTF8
Codec ID/Info : UTF-8 Plain Text
Duration : 3 h 24 min
Bit rate : 55 b/s
Frame rate : 0.194 FPS
Count of elements : 2379
Stream size : 83.5 KiB (0%)
Language : Hungarian
Default : No
Forced : No

Text #21
ID : 23
Format : UTF-8
Codec ID : S_TEXT/UTF8
Codec ID/Info : UTF-8 Plain Text
Duration : 3 h 24 min
Bit rate : 54 b/s
Frame rate : 0.195 FPS
Count of elements : 2391
Stream size : 82.3 KiB (0%)
Language : Indonesian
Default : No
Forced : No

Text #22
ID : 24
Format : UTF-8
Codec ID : S_TEXT/UTF8
Codec ID/Info : UTF-8 Plain Text
Duration : 3 h 21 min
Bit rate : 56 b/s
Frame rate : 0.193 FPS
Count of elements : 2330
Stream size : 84.1 KiB (0%)
Language : Italian
Default : No
Forced : No

Text #23
ID : 25
Format : UTF-8
Codec ID : S_TEXT/UTF8
Codec ID/Info : UTF-8 Plain Text
Duration : 3 h 24 min
Bit rate : 52 b/s
Frame rate : 0.195 FPS
Count of elements : 2394
Stream size : 78.8 KiB (0%)
Language : Korean
Default : No
Forced : No

Text #24
ID : 26
Format : UTF-8
Codec ID : S_TEXT/UTF8
Codec ID/Info : UTF-8 Plain Text
Duration : 3 h 24 min
Bit rate : 50 b/s
Frame rate : 0.195 FPS
Count of elements : 2390
Stream size : 76.3 KiB (0%)
Language : Lithuanian
Default : No
Forced : No

Text #25
ID : 27
Format : UTF-8
Codec ID : S_TEXT/UTF8
Codec ID/Info : UTF-8 Plain Text
Duration : 3 h 24 min
Bit rate : 55 b/s
Frame rate : 0.195 FPS
Count of elements : 2394
Stream size : 83.4 KiB (0%)
Language : Latvian
Default : No
Forced : No

Text #26
ID : 28
Format : UTF-8
Codec ID : S_TEXT/UTF8
Codec ID/Info : UTF-8 Plain Text
Duration : 3 h 24 min
Bit rate : 54 b/s
Frame rate : 0.195 FPS
Count of elements : 2388
Stream size : 82.1 KiB (0%)
Language : Malay
Default : No
Forced : No

Text #27
ID : 29
Format : UTF-8
Codec ID : S_TEXT/UTF8
Codec ID/Info : UTF-8 Plain Text
Duration : 3 h 24 min
Bit rate : 49 b/s
Frame rate : 0.163 FPS
Count of elements : 1999
Stream size : 74.4 KiB (0%)
Language : Dutch
Default : No
Forced : No

Text #28
ID : 30
Format : UTF-8
Codec ID : S_TEXT/UTF8
Codec ID/Info : UTF-8 Plain Text
Duration : 3 h 24 min
Bit rate : 51 b/s
Frame rate : 0.181 FPS
Count of elements : 2224
Stream size : 76.7 KiB (0%)
Language : Norwegian
Default : No
Forced : No

Text #29
ID : 31
Format : UTF-8
Codec ID : S_TEXT/UTF8
Codec ID/Info : UTF-8 Plain Text
Duration : 3 h 24 min
Bit rate : 54 b/s
Frame rate : 0.194 FPS
Count of elements : 2378
Stream size : 80.9 KiB (0%)
Language : Polish
Default : No
Forced : No

Text #30
ID : 32
Format : UTF-8
Codec ID : S_TEXT/UTF8
Codec ID/Info : UTF-8 Plain Text
Duration : 3 h 24 min
Bit rate : 51 b/s
Frame rate : 0.194 FPS
Count of elements : 2378
Stream size : 77.8 KiB (0%)
Language : Portuguese
Default : No
Forced : No

Text #31
ID : 33
Format : UTF-8
Codec ID : S_TEXT/UTF8
Codec ID/Info : UTF-8 Plain Text
Duration : 3 h 24 min
Bit rate : 82 b/s
Frame rate : 0.195 FPS
Count of elements : 2390
Stream size : 123 KiB (0%)
Language : Russian
Default : No
Forced : No

Text #32
ID : 34
Format : UTF-8
Codec ID : S_TEXT/UTF8
Codec ID/Info : UTF-8 Plain Text
Duration : 3 h 24 min
Bit rate : 51 b/s
Frame rate : 0.193 FPS
Count of elements : 2374
Stream size : 76.6 KiB (0%)
Language : Slovak
Default : No
Forced : No

Text #33
ID : 35
Format : UTF-8
Codec ID : S_TEXT/UTF8
Codec ID/Info : UTF-8 Plain Text
Duration : 3 h 24 min
Bit rate : 45 b/s
Frame rate : 0.181 FPS
Count of elements : 2225
Stream size : 67.9 KiB (0%)
Language : Slovenian
Default : No
Forced : No

Text #34
ID : 36
Format : UTF-8
Codec ID : S_TEXT/UTF8
Codec ID/Info : UTF-8 Plain Text
Duration : 3 h 24 min
Bit rate : 54 b/s
Frame rate : 0.195 FPS
Count of elements : 2390
Stream size : 82.3 KiB (0%)
Language : Swedish
Default : No
Forced : No

Text #35
ID : 37
Format : UTF-8
Codec ID : S_TEXT/UTF8
Codec ID/Info : UTF-8 Plain Text
Duration : 3 h 24 min
Bit rate : 172 b/s
Frame rate : 0.195 FPS
Count of elements : 2394
Stream size : 259 KiB (0%)
Language : Tamil
Default : No
Forced : No

Text #36
ID : 38
Format : UTF-8
Codec ID : S_TEXT/UTF8
Codec ID/Info : UTF-8 Plain Text
Duration : 3 h 24 min
Bit rate : 169 b/s
Frame rate : 0.195 FPS
Count of elements : 2395
Stream size : 254 KiB (0%)
Language : Telugu
Default : No
Forced : No

Text #37
ID : 39
Format : UTF-8
Codec ID : S_TEXT/UTF8
Codec ID/Info : UTF-8 Plain Text
Duration : 3 h 24 min
Bit rate : 132 b/s
Frame rate : 0.195 FPS
Count of elements : 2395
Stream size : 198 KiB (0%)
Language : Thai
Default : No
Forced : No

Text #38
ID : 40
Format : UTF-8
Codec ID : S_TEXT/UTF8
Codec ID/Info : UTF-8 Plain Text
Duration : 3 h 24 min
Bit rate : 54 b/s
Frame rate : 0.189 FPS
Count of elements : 2318
Stream size : 82.4 KiB (0%)
Language : Turkish
Default : No
Forced : No

Text #39
ID : 41
Format : UTF-8
Codec ID : S_TEXT/UTF8
Codec ID/Info : UTF-8 Plain Text
Duration : 3 h 24 min
Bit rate : 83 b/s
Frame rate : 0.194 FPS
Count of elements : 2386
Stream size : 125 KiB (0%)
Language : Ukrainian
Default : No
Forced : No

Text #40
ID : 42
Format : UTF-8
Codec ID : S_TEXT/UTF8
Codec ID/Info : UTF-8 Plain Text
Duration : 3 h 24 min
Bit rate : 68 b/s
Frame rate : 0.195 FPS
Count of elements : 2392
Stream size : 102 KiB (0%)
Language : Vietnamese
Default : No
Forced : No

Text #41
ID : 43
Format : UTF-8
Codec ID : S_TEXT/UTF8
Codec ID/Info : UTF-8 Plain Text
Duration : 3 h 24 min
Bit rate : 43 b/s
Frame rate : 0.195 FPS
Count of elements : 2392
Stream size : 65.6 KiB (0%)
Title : Traditional
Language : Cantonese (Hant)
Default : No
Forced : No

[collapse]
Download Link(s)

Download

Direct download files get automatically deleted after a month or so. Posted on : 12/04/2023

[collapse]
Magnet Link

Magnet

Killers.of.the.Flower.Moon.2023.1080p.10bit.WEBRip.6CH.x265.HEVC-PSA-2.86 GB

[collapse]

You may also like...

error: nah :p~