Kantara (2022)

2h 28min | Action, Adventure, Drama

It involves culture of Kambla and Bhootha Kola. A human and nature conflict where Shiva is a rebel who defends his village and nature. A death leads to war between villagers and evil forces. Will he able to regain peace in the village?

Watch trailer

Media information

General
Format : Matroska
Format version : Version 4
File size : 2.73 GiB
Duration : 2 h 27 min
Overall bit rate : 2 641 kb/s
Movie name : Kantara.A.Legend.2022.MULTI-AUDIO.1080p.10bit.WEBRip.6CH.x265.HEVC

Video
ID : 1
Format : HEVC
Format/Info : High Efficiency Video Coding
Format profile : Main 10@L4@Main
Codec ID : V_MPEGH/ISO/HEVC
Duration : 2 h 27 min
Bit rate : 1 865 kb/s
Width : 1 918 pixels
Height : 804 pixels
Display aspect ratio : 2.40:1
Frame rate mode : Constant
Frame rate : 24.000 FPS
Color space : YUV
Chroma subsampling : 4:2:0 (Type 0)
Bit depth : 10 bits
Bits/(Pixel*Frame) : 0.050
Stream size : 1.93 GiB (71%)
Default : Yes
Forced : No
Color range : Limited
Color primaries : BT.709
Transfer characteristics : BT.709
Matrix coefficients : BT.709

Audio #1
ID : 2
Format : AAC LC
Codec ID : A_AAC-2
Duration : 2 h 27 min
Bit rate : 192 kb/s
Channel(s) : 6 channels
Channel layout : L R C Cb Lb Rb
Sampling rate : 48.0 kHz
Frame rate : 46.875 FPS (1024 SPF)
Compression mode : Lossy
Stream size : 204 MiB (7%)
Language : Kannada
Default : Yes
Forced : No

Audio #2
ID : 3
Format : AAC LC
Codec ID : A_AAC-2
Duration : 2 h 27 min
Bit rate : 192 kb/s
Channel(s) : 6 channels
Channel layout : L R C Cb Lb Rb
Sampling rate : 48.0 kHz
Frame rate : 46.875 FPS (1024 SPF)
Compression mode : Lossy
Stream size : 204 MiB (7%)
Language : Tamil
Default : No
Forced : No

Audio #3
ID : 4
Format : AAC LC
Codec ID : A_AAC-2
Duration : 2 h 27 min
Bit rate : 192 kb/s
Channel(s) : 6 channels
Channel layout : L R C Cb Lb Rb
Sampling rate : 48.0 kHz
Frame rate : 46.875 FPS (1024 SPF)
Compression mode : Lossy
Stream size : 204 MiB (7%)
Language : Malayalam
Default : No
Forced : No

Audio #4
ID : 5
Format : AAC LC
Codec ID : A_AAC-2
Duration : 2 h 27 min
Bit rate : 192 kb/s
Channel(s) : 6 channels
Channel layout : L R C Cb Lb Rb
Sampling rate : 48.0 kHz
Frame rate : 46.875 FPS (1024 SPF)
Compression mode : Lossy
Stream size : 204 MiB (7%)
Language : Telugu
Default : No
Forced : No

Text
ID : 6
Format : UTF-8
Codec ID : S_TEXT/UTF8
Codec ID/Info : UTF-8 Plain Text
Duration : 2 h 25 min
Bit rate : 69 b/s
Frame rate : 0.252 FPS
Count of elements : 2200
Stream size : 74.0 KiB (0%)
Language : English
Default : Yes
Forced : No

[collapse]
Download Link(s)

Download

Direct download files get automatically deleted after a month or so. Posted on : 11/29/2022

[collapse]
Magnet Link

Magnet

Kantara.2022.1080p.10Bit.HEVC.AMZN.WebRip.KAN.MAL.TAM.TEL.DD5.1.H.265.themoviesboss-3.3 GB

[collapse]

Media information

General
Format : Matroska
Format version : Version 4
File size : 1.60 GiB
Duration : 2 h 27 min
Overall bit rate : 1 546 kb/s
Movie name : Kantara.A.Legend.2022.MULTI-AUDIO.720p.10bit.WEBRip.6CH.x265.HEVC

Video
ID : 1
Format : HEVC
Format/Info : High Efficiency Video Coding
Format profile : Main [email protected]@Main
Codec ID : V_MPEGH/ISO/HEVC
Duration : 2 h 27 min
Bit rate : 770 kb/s
Width : 1 280 pixels
Height : 536 pixels
Display aspect ratio : 2.40:1
Frame rate mode : Constant
Frame rate : 24.000 FPS
Color space : YUV
Chroma subsampling : 4:2:0 (Type 0)
Bit depth : 10 bits
Bits/(Pixel*Frame) : 0.047
Stream size : 814 MiB (50%)
Default : Yes
Forced : No
Color range : Limited
Color primaries : BT.709
Transfer characteristics : BT.709
Matrix coefficients : BT.709

Audio #1
ID : 2
Format : AAC LC
Codec ID : A_AAC-2
Duration : 2 h 27 min
Bit rate : 192 kb/s
Channel(s) : 6 channels
Channel layout : L R C Cb Lb Rb
Sampling rate : 48.0 kHz
Frame rate : 46.875 FPS (1024 SPF)
Compression mode : Lossy
Stream size : 204 MiB (12%)
Language : Kannada
Default : Yes
Forced : No

Audio #2
ID : 3
Format : AAC LC
Codec ID : A_AAC-2
Duration : 2 h 27 min
Bit rate : 192 kb/s
Channel(s) : 6 channels
Channel layout : L R C Cb Lb Rb
Sampling rate : 48.0 kHz
Frame rate : 46.875 FPS (1024 SPF)
Compression mode : Lossy
Stream size : 204 MiB (12%)
Language : Tamil
Default : No
Forced : No

Audio #3
ID : 4
Format : AAC LC
Codec ID : A_AAC-2
Duration : 2 h 27 min
Bit rate : 192 kb/s
Channel(s) : 6 channels
Channel layout : L R C Cb Lb Rb
Sampling rate : 48.0 kHz
Frame rate : 46.875 FPS (1024 SPF)
Compression mode : Lossy
Stream size : 204 MiB (12%)
Language : Malayalam
Default : No
Forced : No

Audio #4
ID : 5
Format : AAC LC
Codec ID : A_AAC-2
Duration : 2 h 27 min
Bit rate : 192 kb/s
Channel(s) : 6 channels
Channel layout : L R C Cb Lb Rb
Sampling rate : 48.0 kHz
Frame rate : 46.875 FPS (1024 SPF)
Compression mode : Lossy
Stream size : 204 MiB (12%)
Language : Telugu
Default : No
Forced : No

Text
ID : 6
Format : UTF-8
Codec ID : S_TEXT/UTF8
Codec ID/Info : UTF-8 Plain Text
Duration : 2 h 25 min
Bit rate : 69 b/s
Frame rate : 0.252 FPS
Count of elements : 2200
Stream size : 74.0 KiB (0%)
Language : English
Default : No
Forced : No

[collapse]
Download Link(s)

Download

Direct download files get automatically deleted after a month or so. Posted on : 11/29/2022

[collapse]
Magnet Link

Magnet

Kantara.2022.1080p.10Bit.HEVC.AMZN.WebRip.KAN.MAL.TAM.TEL.DD5.1.H.265.themoviesboss-3.3 GB

[collapse]

You may also like...

error: nah :p~