John Wick: Chapter 2 (2017)

R | 2h 2min | Action, Crime, Thriller

After returning to the criminal underworld to repay a debt, John Wick discovers that a large bounty has been put on his life.

Watch trailer

Media information

General
Format : Matroska
Format version : Version 4
File size : 2.05 GiB
Duration : 2 h 2 min
Overall bit rate : 2 399 kb/s
Movie name : John.Wick.Chapter.2.2017.1080p.10bit.BluRay.8CH.x265.HEVC

Video
ID : 1
Format : HEVC
Format/Info : High Efficiency Video Coding
Format profile : Main 10@L4@Main
Codec ID : V_MPEGH/ISO/HEVC
Duration : 2 h 2 min
Bit rate : 2 011 kb/s
Width : 1 920 pixels
Height : 800 pixels
Display aspect ratio : 2.40:1
Frame rate mode : Constant
Frame rate : 23.976 (24000/1001) FPS
Color space : YUV
Chroma subsampling : 4:2:0 (Type 0)
Bit depth : 10 bits
Bits/(Pixel*Frame) : 0.055
Stream size : 1.72 GiB (84%)
Default : Yes
Forced : No
Color range : Limited

Audio
ID : 2
Format : AAC LC
Codec ID : A_AAC-2
Duration : 2 h 2 min
Bit rate : 384 kb/s
Channel(s) : 8 channels
Channel layout : C L R Ls Rs Lw Rw LFE
Sampling rate : 48.0 kHz
Frame rate : 46.875 FPS (1024 SPF)
Compression mode : Lossy
Delay relative to video : -1 ms
Stream size : 337 MiB (16%)
Language : English
Default : Yes
Forced : No

Text
ID : 3
Format : UTF-8
Codec ID : S_TEXT/UTF8
Codec ID/Info : UTF-8 Plain Text
Duration : 1 h 49 min
Bit rate : 21 b/s
Frame rate : 0.101 FPS
Count of elements : 669
Stream size : 17.6 KiB (0%)
Language : English
Default : Yes
Forced : No

[collapse]
Download Link(s)

Download

Direct download files get automatically deleted after a month or so. Posted on : 08/31/2022

[collapse]
Magnet Link

Magnet

John.Wick.Chapter.2.2017.1080p.BluRay.x264.Atmos.KK650.Regraded-23.1 GB

[collapse]

Media information

General
Format : Matroska
Format version : Version 4
File size : 1.05 GiB
Duration : 2 h 2 min
Overall bit rate : 1 229 kb/s
Movie name : John.Wick.Chapter.2.2017.720p.10bit.BluRay.8CH.x265.HEVC

Video
ID : 1
Format : HEVC
Format/Info : High Efficiency Video Coding
Format profile : Main [email protected]@Main
Codec ID : V_MPEGH/ISO/HEVC
Duration : 2 h 2 min
Bit rate : 970 kb/s
Width : 1 280 pixels
Height : 536 pixels
Display aspect ratio : 2.40:1
Frame rate mode : Constant
Frame rate : 23.976 (24000/1001) FPS
Color space : YUV
Chroma subsampling : 4:2:0 (Type 0)
Bit depth : 10 bits
Bits/(Pixel*Frame) : 0.059
Stream size : 849 MiB (79%)
Default : Yes
Forced : No
Color range : Limited

Audio
ID : 2
Format : AAC LC
Codec ID : A_AAC-2
Duration : 2 h 2 min
Bit rate : 257 kb/s
Channel(s) : 8 channels
Channel layout : C L R Ls Rs Lw Rw LFE
Sampling rate : 48.0 kHz
Frame rate : 46.875 FPS (1024 SPF)
Compression mode : Lossy
Delay relative to video : -1 ms
Stream size : 225 MiB (21%)
Language : English
Default : Yes
Forced : No

Text
ID : 3
Format : UTF-8
Codec ID : S_TEXT/UTF8
Codec ID/Info : UTF-8 Plain Text
Duration : 1 h 49 min
Bit rate : 21 b/s
Frame rate : 0.101 FPS
Count of elements : 669
Stream size : 17.6 KiB (0%)
Language : English
Default : Yes
Forced : No

[collapse]
Download Link(s)

Download

Direct download files get automatically deleted after a month or so. Posted on : 08/31/2022

[collapse]
Magnet Link

Magnet

John.Wick.Chapter.2.2017.1080p.BluRay.x264.Atmos.KK650.Regraded-23.1 GB

[collapse]

You may also like...

error: nah :p~