Jimmy Carr: Natural Born Killer (2024)

59min | Documentary, Comedy

An iconic comedian tackles controversial issues such as gun control, religion, cancellation culture and consent through provocative humor.

Watch trailer

Media information

General
Format : Matroska
Format version : Version 4
File size : 1.23 GiB
Duration : 59 min 54 s
Overall bit rate : 2 932 kb/s
Frame rate : 25.000 FPS
Movie name : Jimmy.Carr.Natural.Born.Killer.2024.1080p.10bit.WEBRip.6CH.x265.HEVC

Video
ID : 1
Format : HEVC
Format/Info : High Efficiency Video Coding
Format profile : Main 10@L4@Main
Codec ID : V_MPEGH/ISO/HEVC
Duration : 59 min 54 s
Bit rate : 2 156 kb/s
Width : 1 920 pixels
Height : 1 080 pixels
Display aspect ratio : 16:9
Frame rate mode : Constant
Frame rate : 25.000 FPS
Color space : YUV
Chroma subsampling : 4:2:0 (Type 0)
Bit depth : 10 bits
Bits/(Pixel*Frame) : 0.042
Stream size : 924 MiB (74%)
Default : Yes
Forced : No
Color range : Limited

Audio
ID : 2
Format : E-AC-3 JOC
Format/Info : Enhanced AC-3 with Joint Object Coding
Commercial name : Dolby Digital Plus with Dolby Atmos
Codec ID : A_EAC3
Duration : 59 min 53 s
Bit rate mode : Constant
Bit rate : 768 kb/s
Channel(s) : 6 channels
Channel layout : L R C LFE Ls Rs
Sampling rate : 48.0 kHz
Frame rate : 31.250 FPS (1536 SPF)
Bit depth : 32 bits
Compression mode : Lossy
Stream size : 329 MiB (26%)
Language : English
Service kind : Complete Main
Default : Yes
Forced : No
Complexity index : 16
Number of dynamic objects : 15
Bed channel count : 1 channel
Bed channel configuration : LFE

Text #1
ID : 3
Format : UTF-8
Codec ID : S_TEXT/UTF8
Codec ID/Info : UTF-8 Plain Text
Duration : 58 min 56 s
Bit rate : 95 b/s
Frame rate : 0.274 FPS
Count of elements : 969
Stream size : 41.2 KiB (0%)
Language : English
Default : No
Forced : No

Text #2
ID : 4
Format : UTF-8
Codec ID : S_TEXT/UTF8
Codec ID/Info : UTF-8 Plain Text
Duration : 59 min 30 s
Bit rate : 112 b/s
Frame rate : 0.373 FPS
Count of elements : 1331
Stream size : 49.0 KiB (0%)
Title : SDH
Language : English
Default : Yes
Forced : No

Text #3
ID : 5
Format : UTF-8
Codec ID : S_TEXT/UTF8
Codec ID/Info : UTF-8 Plain Text
Duration : 59 min 1 s
Bit rate : 149 b/s
Frame rate : 0.254 FPS
Count of elements : 901
Stream size : 64.8 KiB (0%)
Language : Arabic
Default : No
Forced : No

Text #4
ID : 6
Format : UTF-8
Codec ID : S_TEXT/UTF8
Codec ID/Info : UTF-8 Plain Text
Duration : 59 min 32 s
Bit rate : 77 b/s
Frame rate : 0.245 FPS
Count of elements : 875
Stream size : 34.0 KiB (0%)
Language : Czech
Default : No
Forced : No

Text #5
ID : 7
Format : UTF-8
Codec ID : S_TEXT/UTF8
Codec ID/Info : UTF-8 Plain Text
Duration : 59 min 32 s
Bit rate : 76 b/s
Frame rate : 0.236 FPS
Count of elements : 842
Stream size : 33.4 KiB (0%)
Language : Danish
Default : No
Forced : No

Text #6
ID : 8
Format : UTF-8
Codec ID : S_TEXT/UTF8
Codec ID/Info : UTF-8 Plain Text
Duration : 59 min 30 s
Bit rate : 74 b/s
Frame rate : 0.228 FPS
Count of elements : 814
Stream size : 32.3 KiB (0%)
Language : German
Default : No
Forced : No

Text #7
ID : 9
Format : UTF-8
Codec ID : S_TEXT/UTF8
Codec ID/Info : UTF-8 Plain Text
Duration : 59 min 35 s
Bit rate : 127 b/s
Frame rate : 0.238 FPS
Count of elements : 850
Stream size : 55.6 KiB (0%)
Language : Greek
Default : No
Forced : No

Text #8
ID : 10
Format : UTF-8
Codec ID : S_TEXT/UTF8
Codec ID/Info : UTF-8 Plain Text
Duration : 59 min 32 s
Bit rate : 82 b/s
Frame rate : 0.239 FPS
Count of elements : 855
Stream size : 36.1 KiB (0%)
Title : Latin American
Language : Spanish
Default : No
Forced : No

Text #9
ID : 11
Format : UTF-8
Codec ID : S_TEXT/UTF8
Codec ID/Info : UTF-8 Plain Text
Duration : 59 min 32 s
Bit rate : 77 b/s
Frame rate : 0.239 FPS
Count of elements : 853
Stream size : 33.8 KiB (0%)
Language : Spanish
Default : No
Forced : No

Text #10
ID : 12
Format : UTF-8
Codec ID : S_TEXT/UTF8
Codec ID/Info : UTF-8 Plain Text
Duration : 59 min 30 s
Bit rate : 77 b/s
Frame rate : 0.234 FPS
Count of elements : 835
Stream size : 33.9 KiB (0%)
Language : Finnish
Default : No
Forced : No

Text #11
ID : 13
Format : UTF-8
Codec ID : S_TEXT/UTF8
Codec ID/Info : UTF-8 Plain Text
Duration : 59 min 31 s
Bit rate : 81 b/s
Frame rate : 0.248 FPS
Count of elements : 886
Stream size : 35.4 KiB (0%)
Language : English
Default : No
Forced : No

Text #12
ID : 14
Format : UTF-8
Codec ID : S_TEXT/UTF8
Codec ID/Info : UTF-8 Plain Text
Duration : 59 min 32 s
Bit rate : 77 b/s
Frame rate : 0.232 FPS
Count of elements : 828
Stream size : 34.0 KiB (0%)
Language : French
Default : No
Forced : No

Text #13
ID : 15
Format : UTF-8
Codec ID : S_TEXT/UTF8
Codec ID/Info : UTF-8 Plain Text
Duration : 59 min 35 s
Bit rate : 137 b/s
Frame rate : 0.251 FPS
Count of elements : 896
Stream size : 59.9 KiB (0%)
Language : Hebrew
Default : No
Forced : No

Text #14
ID : 16
Format : UTF-8
Codec ID : S_TEXT/UTF8
Codec ID/Info : UTF-8 Plain Text
Duration : 59 min 37 s
Bit rate : 74 b/s
Frame rate : 0.231 FPS
Count of elements : 828
Stream size : 32.5 KiB (0%)
Language : Croatian
Default : No
Forced : No

Text #15
ID : 17
Format : UTF-8
Codec ID : S_TEXT/UTF8
Codec ID/Info : UTF-8 Plain Text
Duration : 59 min 37 s
Bit rate : 78 b/s
Frame rate : 0.240 FPS
Count of elements : 857
Stream size : 34.3 KiB (0%)
Language : Hungarian
Default : No
Forced : No

Text #16
ID : 18
Format : UTF-8
Codec ID : S_TEXT/UTF8
Codec ID/Info : UTF-8 Plain Text
Duration : 59 min 32 s
Bit rate : 80 b/s
Frame rate : 0.248 FPS
Count of elements : 887
Stream size : 35.0 KiB (0%)
Language : Indonesian
Default : No
Forced : No

Text #17
ID : 19
Format : UTF-8
Codec ID : S_TEXT/UTF8
Codec ID/Info : UTF-8 Plain Text
Duration : 59 min 32 s
Bit rate : 76 b/s
Frame rate : 0.241 FPS
Count of elements : 862
Stream size : 33.4 KiB (0%)
Language : Italian
Default : No
Forced : No

Text #18
ID : 20
Format : UTF-8
Codec ID : S_TEXT/UTF8
Codec ID/Info : UTF-8 Plain Text
Duration : 59 min 35 s
Bit rate : 59 b/s
Frame rate : 0.206 FPS
Count of elements : 738
Stream size : 26.0 KiB (0%)
Language : Japanese
Default : No
Forced : No

Text #19
ID : 21
Format : UTF-8
Codec ID : S_TEXT/UTF8
Codec ID/Info : UTF-8 Plain Text
Duration : 59 min 35 s
Bit rate : 98 b/s
Frame rate : 0.269 FPS
Count of elements : 962
Stream size : 43.1 KiB (0%)
Language : Korean
Default : No
Forced : No

Text #20
ID : 22
Format : UTF-8
Codec ID : S_TEXT/UTF8
Codec ID/Info : UTF-8 Plain Text
Duration : 59 min 30 s
Bit rate : 81 b/s
Frame rate : 0.247 FPS
Count of elements : 882
Stream size : 35.6 KiB (0%)
Language : Malay
Default : No
Forced : No

Text #21
ID : 23
Format : UTF-8
Codec ID : S_TEXT/UTF8
Codec ID/Info : UTF-8 Plain Text
Duration : 59 min 32 s
Bit rate : 74 b/s
Frame rate : 0.231 FPS
Count of elements : 824
Stream size : 32.4 KiB (0%)
Language : Norwegian Bokmal
Default : No
Forced : No

Text #22
ID : 24
Format : UTF-8
Codec ID : S_TEXT/UTF8
Codec ID/Info : UTF-8 Plain Text
Duration : 58 min 56 s
Bit rate : 76 b/s
Frame rate : 0.202 FPS
Count of elements : 714
Stream size : 33.0 KiB (0%)
Language : Dutch
Default : No
Forced : No

Text #23
ID : 25
Format : UTF-8
Codec ID : S_TEXT/UTF8
Codec ID/Info : UTF-8 Plain Text
Duration : 59 min 32 s
Bit rate : 76 b/s
Frame rate : 0.235 FPS
Count of elements : 841
Stream size : 33.3 KiB (0%)
Language : Polish
Default : No
Forced : No

Text #24
ID : 26
Format : UTF-8
Codec ID : S_TEXT/UTF8
Codec ID/Info : UTF-8 Plain Text
Duration : 59 min 32 s
Bit rate : 79 b/s
Frame rate : 0.248 FPS
Count of elements : 886
Stream size : 34.8 KiB (0%)
Title : Brazilian
Language : Portuguese
Default : No
Forced : No

Text #25
ID : 27
Format : UTF-8
Codec ID : S_TEXT/UTF8
Codec ID/Info : UTF-8 Plain Text
Duration : 59 min 30 s
Bit rate : 87 b/s
Frame rate : 0.249 FPS
Count of elements : 890
Stream size : 38.1 KiB (0%)
Language : Portuguese
Default : No
Forced : No

Text #26
ID : 28
Format : UTF-8
Codec ID : S_TEXT/UTF8
Codec ID/Info : UTF-8 Plain Text
Duration : 59 min 37 s
Bit rate : 78 b/s
Frame rate : 0.229 FPS
Count of elements : 819
Stream size : 34.1 KiB (0%)
Language : Romanian
Default : No
Forced : No

Text #27
ID : 29
Format : UTF-8
Codec ID : S_TEXT/UTF8
Codec ID/Info : UTF-8 Plain Text
Duration : 59 min 37 s
Bit rate : 128 b/s
Frame rate : 0.242 FPS
Count of elements : 867
Stream size : 56.3 KiB (0%)
Language : Russian
Default : No
Forced : No

Text #28
ID : 30
Format : UTF-8
Codec ID : S_TEXT/UTF8
Codec ID/Info : UTF-8 Plain Text
Duration : 59 min 32 s
Bit rate : 74 b/s
Frame rate : 0.218 FPS
Count of elements : 778
Stream size : 32.4 KiB (0%)
Language : Swedish
Default : No
Forced : No

Text #29
ID : 31
Format : UTF-8
Codec ID : S_TEXT/UTF8
Codec ID/Info : UTF-8 Plain Text
Duration : 59 min 37 s
Bit rate : 213 b/s
Frame rate : 0.246 FPS
Count of elements : 880
Stream size : 93.4 KiB (0%)
Language : Thai
Default : No
Forced : No

Text #30
ID : 32
Format : UTF-8
Codec ID : S_TEXT/UTF8
Codec ID/Info : UTF-8 Plain Text
Duration : 59 min 32 s
Bit rate : 79 b/s
Frame rate : 0.234 FPS
Count of elements : 835
Stream size : 34.6 KiB (0%)
Language : Turkish
Default : No
Forced : No

Text #31
ID : 33
Format : UTF-8
Codec ID : S_TEXT/UTF8
Codec ID/Info : UTF-8 Plain Text
Duration : 59 min 35 s
Bit rate : 132 b/s
Frame rate : 0.234 FPS
Count of elements : 836
Stream size : 57.9 KiB (0%)
Language : Ukrainian
Default : No
Forced : No

Text #32
ID : 34
Format : UTF-8
Codec ID : S_TEXT/UTF8
Codec ID/Info : UTF-8 Plain Text
Duration : 59 min 37 s
Bit rate : 98 b/s
Frame rate : 0.223 FPS
Count of elements : 798
Stream size : 43.2 KiB (0%)
Language : Vietnamese
Default : No
Forced : No

Text #33
ID : 35
Format : UTF-8
Codec ID : S_TEXT/UTF8
Codec ID/Info : UTF-8 Plain Text
Duration : 59 min 37 s
Bit rate : 79 b/s
Frame rate : 0.249 FPS
Count of elements : 892
Stream size : 34.8 KiB (0%)
Title : Simplified
Language : Chinese
Default : No
Forced : No

Text #34
ID : 36
Format : UTF-8
Codec ID : S_TEXT/UTF8
Codec ID/Info : UTF-8 Plain Text
Duration : 59 min 37 s
Bit rate : 77 b/s
Frame rate : 0.262 FPS
Count of elements : 937
Stream size : 33.7 KiB (0%)
Title : Traditional
Language : Chinese
Default : No
Forced : No

[collapse]
Download Link(s)

Download

Direct download files get automatically deleted after a month or so. Posted on : 04/18/2024

[collapse]
Magnet Link

Magnet

Jimmy.Carr.Natural.Born.Killer.2024.1080p.NF.WEB.DL.DDP5.1.Atmos.H.264.FLUX-2.4 GB

[collapse]

Media information

General
Format : Matroska
Format version : Version 4
File size : 584 MiB
Duration : 59 min 54 s
Overall bit rate : 1 364 kb/s
Frame rate : 25.000 FPS
Movie name : Jimmy.Carr.Natural.Born.Killer.2024.720p.10bit.WEBRip.6CH.x265.HEVC

Video
ID : 1
Format : HEVC
Format/Info : High Efficiency Video Coding
Format profile : Main [email protected]@Main
Codec ID : V_MPEGH/ISO/HEVC
Duration : 59 min 54 s
Bit rate : 1 068 kb/s
Width : 1 280 pixels
Height : 720 pixels
Display aspect ratio : 16:9
Frame rate mode : Constant
Frame rate : 25.000 FPS
Color space : YUV
Chroma subsampling : 4:2:0 (Type 0)
Bit depth : 10 bits
Bits/(Pixel*Frame) : 0.046
Stream size : 458 MiB (78%)
Default : Yes
Forced : No
Color range : Limited

Audio
ID : 2
Format : E-AC-3
Format/Info : Enhanced AC-3
Commercial name : Dolby Digital Plus
Codec ID : A_EAC3
Duration : 59 min 53 s
Bit rate mode : Constant
Bit rate : 288 kb/s
Channel(s) : 6 channels
Channel layout : L R C LFE Ls Rs
Sampling rate : 48.0 kHz
Frame rate : 31.250 FPS (1536 SPF)
Bit depth : 32 bits
Compression mode : Lossy
Stream size : 123 MiB (21%)
Language : English
Service kind : Complete Main
Default : Yes
Forced : No

Text #1
ID : 3
Format : UTF-8
Codec ID : S_TEXT/UTF8
Codec ID/Info : UTF-8 Plain Text
Duration : 58 min 56 s
Bit rate : 95 b/s
Frame rate : 0.274 FPS
Count of elements : 969
Stream size : 41.2 KiB (0%)
Language : English
Default : No
Forced : No

Text #2
ID : 4
Format : UTF-8
Codec ID : S_TEXT/UTF8
Codec ID/Info : UTF-8 Plain Text
Duration : 59 min 30 s
Bit rate : 112 b/s
Frame rate : 0.373 FPS
Count of elements : 1331
Stream size : 49.0 KiB (0%)
Title : SDH
Language : English
Default : Yes
Forced : No

Text #3
ID : 5
Format : UTF-8
Codec ID : S_TEXT/UTF8
Codec ID/Info : UTF-8 Plain Text
Duration : 59 min 1 s
Bit rate : 149 b/s
Frame rate : 0.254 FPS
Count of elements : 901
Stream size : 64.8 KiB (0%)
Language : Arabic
Default : No
Forced : No

Text #4
ID : 6
Format : UTF-8
Codec ID : S_TEXT/UTF8
Codec ID/Info : UTF-8 Plain Text
Duration : 59 min 32 s
Bit rate : 77 b/s
Frame rate : 0.245 FPS
Count of elements : 875
Stream size : 34.0 KiB (0%)
Language : Czech
Default : No
Forced : No

Text #5
ID : 7
Format : UTF-8
Codec ID : S_TEXT/UTF8
Codec ID/Info : UTF-8 Plain Text
Duration : 59 min 32 s
Bit rate : 76 b/s
Frame rate : 0.236 FPS
Count of elements : 842
Stream size : 33.4 KiB (0%)
Language : Danish
Default : No
Forced : No

Text #6
ID : 8
Format : UTF-8
Codec ID : S_TEXT/UTF8
Codec ID/Info : UTF-8 Plain Text
Duration : 59 min 30 s
Bit rate : 74 b/s
Frame rate : 0.228 FPS
Count of elements : 814
Stream size : 32.3 KiB (0%)
Language : German
Default : No
Forced : No

Text #7
ID : 9
Format : UTF-8
Codec ID : S_TEXT/UTF8
Codec ID/Info : UTF-8 Plain Text
Duration : 59 min 35 s
Bit rate : 127 b/s
Frame rate : 0.238 FPS
Count of elements : 850
Stream size : 55.6 KiB (0%)
Language : Greek
Default : No
Forced : No

Text #8
ID : 10
Format : UTF-8
Codec ID : S_TEXT/UTF8
Codec ID/Info : UTF-8 Plain Text
Duration : 59 min 32 s
Bit rate : 82 b/s
Frame rate : 0.239 FPS
Count of elements : 855
Stream size : 36.1 KiB (0%)
Title : Latin American
Language : Spanish
Default : No
Forced : No

Text #9
ID : 11
Format : UTF-8
Codec ID : S_TEXT/UTF8
Codec ID/Info : UTF-8 Plain Text
Duration : 59 min 32 s
Bit rate : 77 b/s
Frame rate : 0.239 FPS
Count of elements : 853
Stream size : 33.8 KiB (0%)
Language : Spanish
Default : No
Forced : No

Text #10
ID : 12
Format : UTF-8
Codec ID : S_TEXT/UTF8
Codec ID/Info : UTF-8 Plain Text
Duration : 59 min 30 s
Bit rate : 77 b/s
Frame rate : 0.234 FPS
Count of elements : 835
Stream size : 33.9 KiB (0%)
Language : Finnish
Default : No
Forced : No

Text #11
ID : 13
Format : UTF-8
Codec ID : S_TEXT/UTF8
Codec ID/Info : UTF-8 Plain Text
Duration : 59 min 31 s
Bit rate : 81 b/s
Frame rate : 0.248 FPS
Count of elements : 886
Stream size : 35.4 KiB (0%)
Language : English
Default : No
Forced : No

Text #12
ID : 14
Format : UTF-8
Codec ID : S_TEXT/UTF8
Codec ID/Info : UTF-8 Plain Text
Duration : 59 min 32 s
Bit rate : 77 b/s
Frame rate : 0.232 FPS
Count of elements : 828
Stream size : 34.0 KiB (0%)
Language : French
Default : No
Forced : No

Text #13
ID : 15
Format : UTF-8
Codec ID : S_TEXT/UTF8
Codec ID/Info : UTF-8 Plain Text
Duration : 59 min 35 s
Bit rate : 137 b/s
Frame rate : 0.251 FPS
Count of elements : 896
Stream size : 59.9 KiB (0%)
Language : Hebrew
Default : No
Forced : No

Text #14
ID : 16
Format : UTF-8
Codec ID : S_TEXT/UTF8
Codec ID/Info : UTF-8 Plain Text
Duration : 59 min 37 s
Bit rate : 74 b/s
Frame rate : 0.231 FPS
Count of elements : 828
Stream size : 32.5 KiB (0%)
Language : Croatian
Default : No
Forced : No

Text #15
ID : 17
Format : UTF-8
Codec ID : S_TEXT/UTF8
Codec ID/Info : UTF-8 Plain Text
Duration : 59 min 37 s
Bit rate : 78 b/s
Frame rate : 0.240 FPS
Count of elements : 857
Stream size : 34.3 KiB (0%)
Language : Hungarian
Default : No
Forced : No

Text #16
ID : 18
Format : UTF-8
Codec ID : S_TEXT/UTF8
Codec ID/Info : UTF-8 Plain Text
Duration : 59 min 32 s
Bit rate : 80 b/s
Frame rate : 0.248 FPS
Count of elements : 887
Stream size : 35.0 KiB (0%)
Language : Indonesian
Default : No
Forced : No

Text #17
ID : 19
Format : UTF-8
Codec ID : S_TEXT/UTF8
Codec ID/Info : UTF-8 Plain Text
Duration : 59 min 32 s
Bit rate : 76 b/s
Frame rate : 0.241 FPS
Count of elements : 862
Stream size : 33.4 KiB (0%)
Language : Italian
Default : No
Forced : No

Text #18
ID : 20
Format : UTF-8
Codec ID : S_TEXT/UTF8
Codec ID/Info : UTF-8 Plain Text
Duration : 59 min 35 s
Bit rate : 59 b/s
Frame rate : 0.206 FPS
Count of elements : 738
Stream size : 26.0 KiB (0%)
Language : Japanese
Default : No
Forced : No

Text #19
ID : 21
Format : UTF-8
Codec ID : S_TEXT/UTF8
Codec ID/Info : UTF-8 Plain Text
Duration : 59 min 35 s
Bit rate : 98 b/s
Frame rate : 0.269 FPS
Count of elements : 962
Stream size : 43.1 KiB (0%)
Language : Korean
Default : No
Forced : No

Text #20
ID : 22
Format : UTF-8
Codec ID : S_TEXT/UTF8
Codec ID/Info : UTF-8 Plain Text
Duration : 59 min 30 s
Bit rate : 81 b/s
Frame rate : 0.247 FPS
Count of elements : 882
Stream size : 35.6 KiB (0%)
Language : Malay
Default : No
Forced : No

Text #21
ID : 23
Format : UTF-8
Codec ID : S_TEXT/UTF8
Codec ID/Info : UTF-8 Plain Text
Duration : 59 min 32 s
Bit rate : 74 b/s
Frame rate : 0.231 FPS
Count of elements : 824
Stream size : 32.4 KiB (0%)
Language : Norwegian Bokmal
Default : No
Forced : No

Text #22
ID : 24
Format : UTF-8
Codec ID : S_TEXT/UTF8
Codec ID/Info : UTF-8 Plain Text
Duration : 58 min 56 s
Bit rate : 76 b/s
Frame rate : 0.202 FPS
Count of elements : 714
Stream size : 33.0 KiB (0%)
Language : Dutch
Default : No
Forced : No

Text #23
ID : 25
Format : UTF-8
Codec ID : S_TEXT/UTF8
Codec ID/Info : UTF-8 Plain Text
Duration : 59 min 32 s
Bit rate : 76 b/s
Frame rate : 0.235 FPS
Count of elements : 841
Stream size : 33.3 KiB (0%)
Language : Polish
Default : No
Forced : No

Text #24
ID : 26
Format : UTF-8
Codec ID : S_TEXT/UTF8
Codec ID/Info : UTF-8 Plain Text
Duration : 59 min 32 s
Bit rate : 79 b/s
Frame rate : 0.248 FPS
Count of elements : 886
Stream size : 34.8 KiB (0%)
Title : Brazilian
Language : Portuguese
Default : No
Forced : No

Text #25
ID : 27
Format : UTF-8
Codec ID : S_TEXT/UTF8
Codec ID/Info : UTF-8 Plain Text
Duration : 59 min 30 s
Bit rate : 87 b/s
Frame rate : 0.249 FPS
Count of elements : 890
Stream size : 38.1 KiB (0%)
Language : Portuguese
Default : No
Forced : No

Text #26
ID : 28
Format : UTF-8
Codec ID : S_TEXT/UTF8
Codec ID/Info : UTF-8 Plain Text
Duration : 59 min 37 s
Bit rate : 78 b/s
Frame rate : 0.229 FPS
Count of elements : 819
Stream size : 34.1 KiB (0%)
Language : Romanian
Default : No
Forced : No

Text #27
ID : 29
Format : UTF-8
Codec ID : S_TEXT/UTF8
Codec ID/Info : UTF-8 Plain Text
Duration : 59 min 37 s
Bit rate : 128 b/s
Frame rate : 0.242 FPS
Count of elements : 867
Stream size : 56.3 KiB (0%)
Language : Russian
Default : No
Forced : No

Text #28
ID : 30
Format : UTF-8
Codec ID : S_TEXT/UTF8
Codec ID/Info : UTF-8 Plain Text
Duration : 59 min 32 s
Bit rate : 74 b/s
Frame rate : 0.218 FPS
Count of elements : 778
Stream size : 32.4 KiB (0%)
Language : Swedish
Default : No
Forced : No

Text #29
ID : 31
Format : UTF-8
Codec ID : S_TEXT/UTF8
Codec ID/Info : UTF-8 Plain Text
Duration : 59 min 37 s
Bit rate : 213 b/s
Frame rate : 0.246 FPS
Count of elements : 880
Stream size : 93.4 KiB (0%)
Language : Thai
Default : No
Forced : No

Text #30
ID : 32
Format : UTF-8
Codec ID : S_TEXT/UTF8
Codec ID/Info : UTF-8 Plain Text
Duration : 59 min 32 s
Bit rate : 79 b/s
Frame rate : 0.234 FPS
Count of elements : 835
Stream size : 34.6 KiB (0%)
Language : Turkish
Default : No
Forced : No

Text #31
ID : 33
Format : UTF-8
Codec ID : S_TEXT/UTF8
Codec ID/Info : UTF-8 Plain Text
Duration : 59 min 35 s
Bit rate : 132 b/s
Frame rate : 0.234 FPS
Count of elements : 836
Stream size : 57.9 KiB (0%)
Language : Ukrainian
Default : No
Forced : No

Text #32
ID : 34
Format : UTF-8
Codec ID : S_TEXT/UTF8
Codec ID/Info : UTF-8 Plain Text
Duration : 59 min 37 s
Bit rate : 98 b/s
Frame rate : 0.223 FPS
Count of elements : 798
Stream size : 43.2 KiB (0%)
Language : Vietnamese
Default : No
Forced : No

Text #33
ID : 35
Format : UTF-8
Codec ID : S_TEXT/UTF8
Codec ID/Info : UTF-8 Plain Text
Duration : 59 min 37 s
Bit rate : 79 b/s
Frame rate : 0.249 FPS
Count of elements : 892
Stream size : 34.8 KiB (0%)
Title : Simplified
Language : Chinese
Default : No
Forced : No

Text #34
ID : 36
Format : UTF-8
Codec ID : S_TEXT/UTF8
Codec ID/Info : UTF-8 Plain Text
Duration : 59 min 37 s
Bit rate : 77 b/s
Frame rate : 0.262 FPS
Count of elements : 937
Stream size : 33.7 KiB (0%)
Title : Traditional
Language : Chinese
Default : No
Forced : No

[collapse]
Download Link(s)

Download

Direct download files get automatically deleted after a month or so. Posted on : 04/18/2024

[collapse]
Magnet Link

Magnet

Jimmy.Carr.Natural.Born.Killer.2024.1080p.NF.WEB.DL.DDP5.1.Atmos.H.264.FLUX-2.4 GB

[collapse]

You may also like...

error: nah :p~