Jai Bhim (2021)

2h 44min | Crime, Drama

When a tribal man is arrested for a case of alleged theft, his wife turns to a human-rights lawyer to help bring justice.

Watch trailer

Media information

General
Format : Matroska
Format version : Version 4
File size : 827 MiB
Duration : 2 h 31 min
Overall bit rate : 765 kb/s
Movie name : Jai.Bhim.2021.720p.HINDI.720p.10bit.WEBRip.6CH.x265.HEVC

Video
ID : 1
Format : HEVC
Format/Info : High Efficiency Video Coding
Format profile : Main [email protected]@Main
Codec ID : V_MPEGH/ISO/HEVC
Duration : 2 h 31 min
Bit rate : 570 kb/s
Width : 1 280 pixels
Height : 544 pixels
Display aspect ratio : 2.35:1
Frame rate mode : Variable
Frame rate : 24.000 FPS
Color space : YUV
Chroma subsampling : 4:2:0 (Type 0)
Bit depth : 10 bits
Bits/(Pixel*Frame) : 0.034
Stream size : 616 MiB (74%)
Default : Yes
Forced : No
Color range : Limited
Color primaries : BT.709
Transfer characteristics : BT.709
Matrix coefficients : BT.709

Audio
ID : 2
Format : AAC LC
Codec ID : A_AAC-2
Duration : 2 h 31 min
Bit rate : 192 kb/s
Channel(s) : 6 channels
Channel layout : L R C Cb Lb Rb
Sampling rate : 48.0 kHz
Frame rate : 46.875 FPS (1024 SPF)
Compression mode : Lossy
Stream size : 208 MiB (25%)
Language : Hindi
Default : Yes
Forced : No

Text
ID : 3
Format : ASS
Codec ID : S_TEXT/ASS
Duration : 2 h 26 min
Bit rate : 121 b/s
Count of elements : 2338
Compression mode : Lossless
Stream size : 130 KiB (0%)
Language : English
Default : Yes
Forced : No

[collapse]
Download Link(s)

Download

Direct download files get automatically deleted after a month or so. Posted on : 11/04/2021

[collapse]
Magnet Link

Magnet

Jai.Bhim.2021.1080p.Multi.Audio.AMZN.10bit.DDP.5.1.x265.HashMiner-3.9 GB

[collapse]

You may also like...

error: nah :p~