Interstellar (2014)

PG-13 | 2h 49min | Adventure, Drama, Sci-Fi

When Earth becomes uninhabitable in the future, a farmer and ex-NASA pilot, Joseph Cooper, is tasked to pilot a spacecraft, along with a team of researchers, to find a new planet for humans.

Watch trailer

Media information

General
Format : Matroska
Format version : Version 4
File size : 3.40 GiB
Duration : 2 h 49 min
Overall bit rate : 2 880 kb/s
Frame rate : 23.976 FPS
Movie name : Interstellar.2014.1080p.10bit.BluRay.6CH.x265.HEVC

Video
ID : 1
Format : HEVC
Format/Info : High Efficiency Video Coding
Format profile : Main 10@L4@Main
Codec ID : V_MPEGH/ISO/HEVC
Duration : 2 h 49 min
Bit rate : 2 388 kb/s
Width : 1 920 pixels
Height : 1 080 pixels
Display aspect ratio : 16:9
Frame rate mode : Constant
Frame rate : 23.976 (24000/1001) FPS
Color space : YUV
Chroma subsampling : 4:2:0 (Type 0)
Bit depth : 10 bits
Bits/(Pixel*Frame) : 0.048
Stream size : 2.82 GiB (83%)
Default : Yes
Forced : No
Color range : Limited

Audio
ID : 2
Format : AAC LC
Codec ID : A_AAC-2
Duration : 2 h 49 min
Bit rate : 384 kb/s
Channel(s) : 6 channels
Channel layout : L R C Cb Lb Rb
Sampling rate : 48.0 kHz
Frame rate : 46.875 FPS (1024 SPF)
Compression mode : Lossy
Stream size : 465 MiB (13%)
Language : English
Default : Yes
Forced : No

Text #1
ID : 3
Format : PGS
Muxing mode : zlib
Codec ID : S_HDMV/PGS
Duration : 2 h 47 min
Bit rate : 33.8 kb/s
Frame rate : 0.417 FPS
Count of elements : 4194
Stream size : 40.6 MiB (1%)
Language : English
Default : Yes
Forced : No

Text #2
ID : 4
Format : PGS
Muxing mode : zlib
Codec ID : S_HDMV/PGS
Duration : 2 h 47 min
Bit rate : 38.4 kb/s
Frame rate : 0.416 FPS
Count of elements : 4192
Stream size : 46.1 MiB (1%)
Language : German
Default : No
Forced : No

Text #3
ID : 5
Format : PGS
Muxing mode : zlib
Codec ID : S_HDMV/PGS
Duration : 2 h 47 min
Bit rate : 30.6 kb/s
Frame rate : 0.398 FPS
Count of elements : 4002
Stream size : 36.7 MiB (1%)
Language : Spanish
Default : No
Forced : No

Text #4
ID : 6
Format : PGS
Muxing mode : zlib
Codec ID : S_HDMV/PGS
Duration : 2 h 47 min
Bit rate : 30.4 kb/s
Frame rate : 0.388 FPS
Count of elements : 3908
Stream size : 36.5 MiB (1%)
Language : Danish
Default : No
Forced : No

Text #5
ID : 7
Format : PGS
Muxing mode : zlib
Codec ID : S_HDMV/PGS
Duration : 2 h 47 min
Bit rate : 24.8 kb/s
Frame rate : 0.321 FPS
Count of elements : 3232
Stream size : 29.7 MiB (1%)
Language : Finnish
Default : No
Forced : No

Text #6
ID : 8
Format : PGS
Muxing mode : zlib
Codec ID : S_HDMV/PGS
Duration : 2 h 47 min
Bit rate : 29.2 kb/s
Frame rate : 0.394 FPS
Count of elements : 3964
Stream size : 35.1 MiB (1%)
Language : Icelandic
Default : No
Forced : No

Text #7
ID : 9
Format : PGS
Muxing mode : zlib
Codec ID : S_HDMV/PGS
Duration : 2 h 47 min
Bit rate : 28.5 kb/s
Frame rate : 0.339 FPS
Count of elements : 3410
Stream size : 34.2 MiB (1%)
Language : Norwegian
Default : No
Forced : No

Text #8
ID : 10
Format : PGS
Muxing mode : zlib
Codec ID : S_HDMV/PGS
Duration : 2 h 47 min
Bit rate : 29.5 kb/s
Frame rate : 0.335 FPS
Count of elements : 3368
Stream size : 35.3 MiB (1%)
Language : Swedish
Default : No
Forced : No

Text #9
ID : 11
Format : PGS
Muxing mode : zlib
Codec ID : S_HDMV/PGS
Duration : 11 min 32 s
Bit rate : 685 b/s
Frame rate : 0.006 FPS
Count of elements : 4
Stream size : 58.0 KiB (0%)
Language : Spanish
Default : No
Forced : No

[collapse]
Download Link(s)

Download

Direct download files get automatically deleted after a month or so. Posted on : 12/29/2023

[collapse]
Magnet Link

Magnet

Interstellar.2014.1080p.BluRay.REMUX.AVC.DTS-HD.MA.5.1-RARBG-42.7 GB

[collapse]

Media information

General
Format : Matroska
Format version : Version 4
File size : 1.87 GiB
Duration : 2 h 49 min
Overall bit rate : 1 584 kb/s
Frame rate : 23.976 FPS
Movie name : Interstellar.2014.720p.10bit.BluRay.6CH.x265.HEVC

Video
ID : 1
Format : HEVC
Format/Info : High Efficiency Video Coding
Format profile : Main [email protected]@Main
Codec ID : V_MPEGH/ISO/HEVC
Duration : 2 h 49 min
Bit rate : 1 187 kb/s
Width : 1 280 pixels
Height : 720 pixels
Display aspect ratio : 16:9
Frame rate mode : Constant
Frame rate : 23.976 (24000/1001) FPS
Color space : YUV
Chroma subsampling : 4:2:0 (Type 0)
Bit depth : 10 bits
Bits/(Pixel*Frame) : 0.054
Stream size : 1.40 GiB (75%)
Default : Yes
Forced : No
Color range : Limited

Audio
ID : 2
Format : AAC LC
Codec ID : A_AAC-2
Duration : 2 h 49 min
Bit rate : 288 kb/s
Channel(s) : 6 channels
Channel layout : L R C Cb Lb Rb
Sampling rate : 48.0 kHz
Frame rate : 46.875 FPS (1024 SPF)
Compression mode : Lossy
Stream size : 349 MiB (18%)
Language : English
Default : Yes
Forced : No

Text #1
ID : 3
Format : PGS
Muxing mode : zlib
Codec ID : S_HDMV/PGS
Duration : 2 h 47 min
Bit rate : 33.8 kb/s
Frame rate : 0.417 FPS
Count of elements : 4194
Stream size : 40.6 MiB (2%)
Language : English
Default : Yes
Forced : No

Text #2
ID : 4
Format : PGS
Muxing mode : zlib
Codec ID : S_HDMV/PGS
Duration : 2 h 47 min
Bit rate : 38.4 kb/s
Frame rate : 0.416 FPS
Count of elements : 4192
Stream size : 46.1 MiB (2%)
Language : German
Default : No
Forced : No

Text #3
ID : 5
Format : PGS
Muxing mode : zlib
Codec ID : S_HDMV/PGS
Duration : 2 h 47 min
Bit rate : 30.6 kb/s
Frame rate : 0.398 FPS
Count of elements : 4002
Stream size : 36.7 MiB (2%)
Language : Spanish
Default : No
Forced : No

Text #4
ID : 6
Format : PGS
Muxing mode : zlib
Codec ID : S_HDMV/PGS
Duration : 2 h 47 min
Bit rate : 30.4 kb/s
Frame rate : 0.388 FPS
Count of elements : 3908
Stream size : 36.5 MiB (2%)
Language : Danish
Default : No
Forced : No

Text #5
ID : 7
Format : PGS
Muxing mode : zlib
Codec ID : S_HDMV/PGS
Duration : 2 h 47 min
Bit rate : 24.8 kb/s
Frame rate : 0.321 FPS
Count of elements : 3232
Stream size : 29.7 MiB (2%)
Language : Finnish
Default : No
Forced : No

Text #6
ID : 8
Format : PGS
Muxing mode : zlib
Codec ID : S_HDMV/PGS
Duration : 2 h 47 min
Bit rate : 29.2 kb/s
Frame rate : 0.394 FPS
Count of elements : 3964
Stream size : 35.1 MiB (2%)
Language : Icelandic
Default : No
Forced : No

Text #7
ID : 9
Format : PGS
Muxing mode : zlib
Codec ID : S_HDMV/PGS
Duration : 2 h 47 min
Bit rate : 28.5 kb/s
Frame rate : 0.339 FPS
Count of elements : 3410
Stream size : 34.2 MiB (2%)
Language : Norwegian
Default : No
Forced : No

Text #8
ID : 10
Format : PGS
Muxing mode : zlib
Codec ID : S_HDMV/PGS
Duration : 2 h 47 min
Bit rate : 29.5 kb/s
Frame rate : 0.335 FPS
Count of elements : 3368
Stream size : 35.3 MiB (2%)
Language : Swedish
Default : No
Forced : No

Text #9
ID : 11
Format : PGS
Muxing mode : zlib
Codec ID : S_HDMV/PGS
Duration : 11 min 32 s
Bit rate : 685 b/s
Frame rate : 0.006 FPS
Count of elements : 4
Stream size : 58.0 KiB (0%)
Language : Spanish
Default : No
Forced : No

[collapse]
Download Link(s)

Download

Direct download files get automatically deleted after a month or so. Posted on : 12/29/2023

[collapse]
Magnet Link

Magnet

Interstellar.2014.1080p.BluRay.REMUX.AVC.DTS-HD.MA.5.1-RARBG-42.7 GB

[collapse]

You may also like...

error: nah :p~