Inglourious Basterds (2009)

R | 2h 33min | Adventure, Drama, War | 21 August 2009 (USA)

In Nazi-occupied France during World War II, a plan to assassinate Nazi leaders by a group of Jewish U.S. soldiers coincides with a theatre owner’s vengeful plans for the same.

Watch trailer

Media information

General
Format : Matroska
Format version : Version 4
File size : 1.59 GiB
Duration : 2 h 32 min
Overall bit rate : 1 494 kb/s
Movie name : Inglourious.Basterds.2009.1080p.10bit.BluRay.6CH.x265.HEVC

Video
ID : 1
Format : HEVC
Format/Info : High Efficiency Video Coding
Format profile : Main [email protected]@Main
Codec ID : V_MPEGH/ISO/HEVC
Duration : 2 h 32 min
Bit rate : 1 254 kb/s
Width : 1 920 pixels
Height : 1 080 pixels
Display aspect ratio : 16:9
Frame rate mode : Constant
Frame rate : 23.976 (24000/1001) FPS
Original frame rate : 23.976 (23976/1000) FPS
Color space : YUV
Chroma subsampling : 4:2:0
Bit depth : 10 bits
Bits/(Pixel*Frame) : 0.025
Stream size : 1.34 GiB (84%)
Default : Yes
Forced : No

Audio
ID : 2
Format : AAC LC
Codec ID : A_AAC-2
Duration : 2 h 32 min
Bit rate : 238 kb/s
Channel(s) : 6 channels
Channel layout : C L R Ls Rs LFE
Sampling rate : 48.0 kHz
Frame rate : 46.875 FPS (1024 SPF)
Compression mode : Lossy
Delay relative to video : 9 ms
Stream size : 260 MiB (16%)
Language : English
Default : Yes
Forced : No

Text
ID : 3
Format : UTF-8
Codec ID : S_TEXT/UTF8
Codec ID/Info : UTF-8 Plain Text
Duration : 2 h 21 min
Bit rate : 32 b/s
Count of elements : 866
Stream size : 33.8 KiB (0%)
Language : English
Default : Yes
Forced : No

[collapse]
Download Link(s)

Download

Full subtitles including english and foreign parts

[RE-UP]-Direct download files get automatically deleted after a month or so. Posted on : 03/17/2021

[collapse]
Magnet Link

Magnet

Inglourious.Basterds.2009.1080p.BluRay.x264-METiS-10.93 GB

[collapse]

Media information

General
Format : Matroska
Format version : Version 4
File size : 989 MiB
Duration : 2 h 32 min
Overall bit rate : 904 kb/s
Movie name : Inglourious.Basterds.2009.720p.10bit.BluRay.2CH.x265.HEVC

Video
ID : 1
Format : HEVC
Format/Info : High Efficiency Video Coding
Format profile : Main [email protected]@Main
Codec ID : V_MPEGH/ISO/HEVC
Duration : 2 h 32 min
Bit rate : 773 kb/s
Width : 1 280 pixels
Height : 528 pixels
Display aspect ratio : 2.40:1
Frame rate mode : Variable
Frame rate : 23.976 FPS
Color space : YUV
Chroma subsampling : 4:2:0
Bit depth : 10 bits
Bits/(Pixel*Frame) : 0.048
Stream size : 846 MiB (86%)
Default : Yes
Forced : No

Audio
ID : 2
Format : AAC LC
Codec ID : A_AAC-2
Duration : 2 h 32 min
Bit rate : 128 kb/s
Channel(s) : 2 channels
Channel layout : L R
Sampling rate : 48.0 kHz
Frame rate : 46.875 FPS (1024 SPF)
Compression mode : Lossy
Stream size : 140 MiB (14%)
Language : English
Default : Yes
Forced : No

Text
ID : 3
Format : UTF-8
Codec ID : S_TEXT/UTF8
Codec ID/Info : UTF-8 Plain Text
Duration : 2 h 21 min
Bit rate : 32 b/s
Count of elements : 866
Stream size : 33.8 KiB (0%)
Language : English
Default : Yes
Forced : No

[collapse]
Download Link(s)

Download

Full subtitles including english and foreign parts

[RE-UP]-Direct download files get automatically deleted after a month or so. Posted on : 03/17/2021

[collapse]
Magnet Link

Magnet

Inglourious.Basterds.2009.1080p.BluRay.x264-METiS-10.93 GB

[collapse]

You may also like...

error: nah :p~