I Still Know What You Did Last Summer (1998)

R | 1h 40min | Horror, Mystery

The murderous fisherman with a hook is back to once again stalk the two surviving teens, Julie and Ray, who had left him for dead, as well as cause even more murder and mayhem, this time at a posh island resort.

Watch trailer

Media information

General
Format : Matroska
Format version : Version 4
File size : 1.71 GiB
Duration : 1 h 40 min
Overall bit rate : 2 430 kb/s
Movie name : I.Still.Know.What.You.Did.Last.Summer.1998.1080p.10bit.BluRay.6CH.x265.HEVC

Video
ID : 1
Format : HEVC
Format/Info : High Efficiency Video Coding
Format profile : Main [email protected]@Main
Codec ID : V_MPEGH/ISO/HEVC
Duration : 1 h 40 min
Bit rate : 2 043 kb/s
Width : 1 920 pixels
Height : 800 pixels
Display aspect ratio : 2.40:1
Frame rate mode : Variable
Frame rate : 23.976 FPS
Color space : YUV
Chroma subsampling : 4:2:0 (Type 0)
Bit depth : 10 bits
Bits/(Pixel*Frame) : 0.055
Stream size : 1.44 GiB (84%)
Default : Yes
Forced : No
Color range : Limited

Audio
ID : 2
Format : AAC LC
Codec ID : A_AAC-2
Duration : 1 h 40 min
Bit rate : 384 kb/s
Channel(s) : 6 channels
Channel layout : L R C Cb Lb Rb
Sampling rate : 48.0 kHz
Frame rate : 46.875 FPS (1024 SPF)
Compression mode : Lossy
Stream size : 276 MiB (16%)
Language : English
Default : Yes
Forced : No

Text
ID : 3
Format : UTF-8
Codec ID : S_TEXT/UTF8
Codec ID/Info : UTF-8 Plain Text
Duration : 1 h 34 min
Bit rate : 52 b/s
Count of elements : 1011
Stream size : 36.4 KiB (0%)
Language : English
Default : Yes
Forced : No

[collapse]
Download Link(s)

Download

Direct download files get automatically deleted after a month or so. Posted on : 10/18/2021

[collapse]
Magnet Link

Magnet

I.Still.Know.What.You.Did.Last.Summer.1998.1080p.BluRay.x264-TFiN-7.95 GB

[collapse]

Media information

General
Format : Matroska
Format version : Version 4
File size : 1.16 GiB
Duration : 1 h 40 min
Overall bit rate : 1 653 kb/s
Movie name : I.Still.Know.What.You.Did.Last.Summer.1998.720p.10bit.BluRay.6CH.x265.HEVC

Video
ID : 1
Format : HEVC
Format/Info : High Efficiency Video Coding
Format profile : Main [email protected]@Main
Codec ID : V_MPEGH/ISO/HEVC
Duration : 1 h 40 min
Bit rate : 1 363 kb/s
Width : 1 280 pixels
Height : 536 pixels
Display aspect ratio : 2.40:1
Frame rate mode : Variable
Frame rate : 23.976 FPS
Color space : YUV
Chroma subsampling : 4:2:0 (Type 0)
Bit depth : 10 bits
Bits/(Pixel*Frame) : 0.083
Stream size : 980 MiB (82%)
Default : Yes
Forced : No
Color range : Limited

Audio
ID : 2
Format : AAC LC
Codec ID : A_AAC-2
Duration : 1 h 40 min
Bit rate : 288 kb/s
Channel(s) : 6 channels
Channel layout : L R C Cb Lb Rb
Sampling rate : 48.0 kHz
Frame rate : 46.875 FPS (1024 SPF)
Compression mode : Lossy
Stream size : 208 MiB (17%)
Language : English
Default : Yes
Forced : No

Text
ID : 3
Format : UTF-8
Codec ID : S_TEXT/UTF8
Codec ID/Info : UTF-8 Plain Text
Duration : 1 h 34 min
Bit rate : 52 b/s
Count of elements : 1011
Stream size : 36.4 KiB (0%)
Language : English
Default : Yes
Forced : No

[collapse]
Download Link(s)

Download

Direct download files get automatically deleted after a month or so. Posted on : 10/18/2021

[collapse]
Magnet Link

Magnet

I.Still.Know.What.You.Did.Last.Summer.1998.1080p.BluRay.x264-TFiN-7.95 GB

[collapse]

You may also like...

error: nah :p~