How the Grinch Stole Christmas (2000)

PG | 1h 44min | Comedy, Family, Fantasy

On the outskirts of Whoville lives a green, revenge-seeking Grinch who plans to ruin Christmas for all of the citizens of the town.

Watch trailer

Media information

General
Format : Matroska
Format version : Version 4
File size : 1.94 GiB
Duration : 1 h 45 min
Overall bit rate : 2 645 kb/s
Frame rate : 23.976 FPS
Movie name : How.the.Grinch.Stole.Christmas.2000.1080p.10bit.BluRay.6CH.x265.HEVC

Video
ID : 1
Format : HEVC
Format/Info : High Efficiency Video Coding
Format profile : Main 10@L4@Main
Codec ID : V_MPEGH/ISO/HEVC
Duration : 1 h 45 min
Bit rate : 2 259 kb/s
Width : 1 920 pixels
Height : 1 040 pixels
Display aspect ratio : 1.85:1
Frame rate mode : Constant
Frame rate : 23.976 (24000/1001) FPS
Color space : YUV
Chroma subsampling : 4:2:0 (Type 0)
Bit depth : 10 bits
Bits/(Pixel*Frame) : 0.047
Stream size : 1.66 GiB (85%)
Default : Yes
Forced : No
Color range : Limited

Audio
ID : 2
Format : AAC LC
Codec ID : A_AAC-2
Duration : 1 h 45 min
Bit rate : 384 kb/s
Channel(s) : 6 channels
Channel layout : C L R Ls Rs LFE
Sampling rate : 48.0 kHz
Frame rate : 46.875 FPS (1024 SPF)
Compression mode : Lossy
Delay relative to video : 20 ms
Stream size : 289 MiB (15%)
Language : English
Default : Yes
Forced : No

Text
ID : 3
Format : UTF-8
Codec ID : S_TEXT/UTF8
Codec ID/Info : UTF-8 Plain Text
Duration : 1 h 43 min
Bit rate : 51 b/s
Frame rate : 0.229 FPS
Count of elements : 1421
Stream size : 39.4 KiB (0%)
Language : English
Default : Yes
Forced : No

[collapse]
Download Link(s)

Download

Direct download files get automatically deleted after a month or so. Posted on : 12/21/2023

[collapse]
Magnet Link

Magnet

How.the.Grinch.Stole.Christmas.2000.1080p.BluRay.x265.HEVC.10bit.AAC.5.1.Tigole.QxR-5.5 GB

[collapse]

Media information

General
Format : Matroska
Format version : Version 4
File size : 1.13 GiB
Duration : 1 h 45 min
Overall bit rate : 1 545 kb/s
Frame rate : 23.976 FPS
Movie name : How.the.Grinch.Stole.Christmas.2000.720p.10bit.BluRay.6CH.x265.HEVC

Video
ID : 1
Format : HEVC
Format/Info : High Efficiency Video Coding
Format profile : Main [email protected]@Main
Codec ID : V_MPEGH/ISO/HEVC
Duration : 1 h 45 min
Bit rate : 1 254 kb/s
Width : 1 280 pixels
Height : 696 pixels
Display aspect ratio : 1.85:1
Frame rate mode : Constant
Frame rate : 23.976 (24000/1001) FPS
Color space : YUV
Chroma subsampling : 4:2:0 (Type 0)
Bit depth : 10 bits
Bits/(Pixel*Frame) : 0.059
Stream size : 943 MiB (81%)
Default : Yes
Forced : No
Color range : Limited

Audio
ID : 2
Format : AAC LC
Codec ID : A_AAC-2
Duration : 1 h 45 min
Bit rate : 288 kb/s
Channel(s) : 6 channels
Channel layout : C L R Ls Rs LFE
Sampling rate : 48.0 kHz
Frame rate : 46.875 FPS (1024 SPF)
Compression mode : Lossy
Delay relative to video : 20 ms
Stream size : 216 MiB (19%)
Language : English
Default : Yes
Forced : No

Text
ID : 3
Format : UTF-8
Codec ID : S_TEXT/UTF8
Codec ID/Info : UTF-8 Plain Text
Duration : 1 h 43 min
Bit rate : 51 b/s
Frame rate : 0.229 FPS
Count of elements : 1421
Stream size : 39.4 KiB (0%)
Language : English
Default : Yes
Forced : No

[collapse]
Download Link(s)

Download

Direct download files get automatically deleted after a month or so. Posted on : 12/21/2023

[collapse]
Magnet Link

Magnet

How.the.Grinch.Stole.Christmas.2000.1080p.BluRay.x265.HEVC.10bit.AAC.5.1.Tigole.QxR-5.5 GB

[collapse]

You may also like...

error: nah :p~