Hellraiser: Hellseeker (2002)

R | 1h 29min | Horror, Mystery, Thriller | Video 15 October 2002

A shady businessman attempts to piece together the details of the car crash that killed his wife, rendered him an amnesiac, and left him in possession of a sinister puzzle box that summons monsters.

Watch trailer

Media information

General
Format : Matroska
Format version : Version 4
File size : 1.25 GiB
Duration : 1 h 28 min
Overall bit rate : 2 018 kb/s
Movie name : Hellraiser.Hellseeker.VI.2002.1080p.10bit.BluRay.2CH.x265.HEVC

Video
ID : 1
Format : HEVC
Format/Info : High Efficiency Video Coding
Format profile : Main [email protected]@Main
Codec ID : V_MPEGH/ISO/HEVC
Duration : 1 h 28 min
Bit rate : 1 727 kb/s
Width : 1 920 pixels
Height : 1 040 pixels
Display aspect ratio : 1.85:1
Frame rate mode : Variable
Frame rate : 23.976 FPS
Color space : YUV
Chroma subsampling : 4:2:0 (Type 0)
Bit depth : 10 bits
Bits/(Pixel*Frame) : 0.036
Stream size : 1.07 GiB (86%)
Default : Yes
Forced : No
Color range : Limited

Audio
ID : 2
Format : AAC LC
Codec ID : A_AAC-2
Duration : 1 h 28 min
Bit rate : 288 kb/s
Channel(s) : 2 channels
Channel layout : L R
Sampling rate : 48.0 kHz
Frame rate : 46.875 FPS (1024 SPF)
Compression mode : Lossy
Stream size : 184 MiB (14%)
Language : English
Default : Yes
Forced : No

Text
ID : 3
Format : UTF-8
Codec ID : S_TEXT/UTF8
Codec ID/Info : UTF-8 Plain Text
Duration : 1 h 22 min
Bit rate : 38 b/s
Count of elements : 670
Stream size : 23.6 KiB (0%)
Language : English
Default : Yes
Forced : No

[collapse]
Download Link(s)

Download

Direct download files get automatically deleted after a month or so. Posted on : 06/09/2021

[collapse]
Magnet Link

Magnet

Hellraiser.Hellseeker.2002.1080p.BluRay.x264-MOOVEE-5.46 GB

[collapse]

Media information

General
Format : Matroska
Format version : Version 4
File size : 608 MiB
Duration : 1 h 28 min
Overall bit rate : 956 kb/s
Movie name : Hellraiser.Hellseeker.VI.2002.720p.10bit.BluRay.2CH.x265.HEVC

Video
ID : 1
Format : HEVC
Format/Info : High Efficiency Video Coding
Format profile : Main [email protected]@Main
Codec ID : V_MPEGH/ISO/HEVC
Duration : 1 h 28 min
Bit rate : 761 kb/s
Width : 1 280 pixels
Height : 696 pixels
Display aspect ratio : 1.85:1
Frame rate mode : Variable
Frame rate : 23.976 FPS
Color space : YUV
Chroma subsampling : 4:2:0 (Type 0)
Bit depth : 10 bits
Bits/(Pixel*Frame) : 0.036
Stream size : 484 MiB (80%)
Default : Yes
Forced : No
Color range : Limited

Audio
ID : 2
Format : AAC LC
Codec ID : A_AAC-2
Duration : 1 h 28 min
Bit rate : 192 kb/s
Channel(s) : 2 channels
Channel layout : L R
Sampling rate : 48.0 kHz
Frame rate : 46.875 FPS (1024 SPF)
Compression mode : Lossy
Stream size : 122 MiB (20%)
Language : English
Default : Yes
Forced : No

Text
ID : 3
Format : UTF-8
Codec ID : S_TEXT/UTF8
Codec ID/Info : UTF-8 Plain Text
Duration : 1 h 22 min
Bit rate : 38 b/s
Count of elements : 670
Stream size : 23.6 KiB (0%)
Language : English
Default : Yes
Forced : No

[collapse]
Download Link(s)

Download

Direct download files get automatically deleted after a month or so. Posted on : 06/09/2021

[collapse]
Magnet Link

Magnet

Hellraiser.Hellseeker.2002.1080p.BluRay.x264-MOOVEE-5.46 GB

[collapse]

You may also like...

error: nah :p~