Headhunters (2011)

R | 1h 36min | Crime, Drama, Thriller | 26 August 2011 (Norway) | Hodejegerne (original title)

An accomplished headhunter risks everything to obtain a valuable painting owned by a former mercenary.

Watch trailer

Media information

General
Format : Matroska
Format version : Version 4
File size : 1.99 GiB
Duration : 1 h 40 min
Overall bit rate : 2 838 kb/s
Movie name : Headhunters.2011.DUAL-AUDIO.NOR-ENG.1080p.10bit.BluRay.6CH.x265.HEVC

Video
ID : 1
Format : HEVC
Format/Info : High Efficiency Video Coding
Format profile : Main [email protected]@Main
Codec ID : V_MPEGH/ISO/HEVC
Duration : 1 h 40 min
Bit rate : 2 065 kb/s
Width : 1 920 pixels
Height : 800 pixels
Display aspect ratio : 2.40:1
Frame rate mode : Constant
Frame rate : 23.976 (24000/1001) FPS
Color space : YUV
Chroma subsampling : 4:2:0 (Type 0)
Bit depth : 10 bits
Bits/(Pixel*Frame) : 0.056
Stream size : 1.45 GiB (73%)
Default : Yes
Forced : No
Color range : Limited

Audio #1
ID : 2
Format : AAC LC
Codec ID : A_AAC-2
Duration : 1 h 40 min
Bit rate : 384 kb/s
Channel(s) : 6 channels
Channel layout : L R C Cb Lb Rb
Sampling rate : 48.0 kHz
Frame rate : 46.875 FPS (1024 SPF)
Compression mode : Lossy
Delay relative to video : -21 ms
Stream size : 276 MiB (14%)
Language : Norwegian
Default : Yes
Forced : No

Audio #2
ID : 3
Format : AAC LC
Codec ID : A_AAC-2
Duration : 1 h 40 min
Bit rate : 384 kb/s
Channel(s) : 6 channels
Channel layout : L R C Cb Lb Rb
Sampling rate : 48.0 kHz
Frame rate : 46.875 FPS (1024 SPF)
Compression mode : Lossy
Delay relative to video : -21 ms
Stream size : 276 MiB (14%)
Language : English
Default : No
Forced : No

Text #1
ID : 4
Format : UTF-8
Codec ID : S_TEXT/UTF8
Codec ID/Info : UTF-8 Plain Text
Duration : 1 h 36 min
Bit rate : 43 b/s
Frame rate : 0.144 FPS
Count of elements : 838
Stream size : 30.9 KiB (0%)
Language : English
Default : Yes
Forced : No

Text #2
ID : 5
Format : UTF-8
Codec ID : S_TEXT/UTF8
Codec ID/Info : UTF-8 Plain Text
Duration : 1 h 36 min
Bit rate : 0 b/s
Frame rate : 0.001 FPS
Count of elements : 5
Stream size : 108 Bytes (0%)
Title : Forced
Language : English
Default : No
Forced : No

[collapse]
Download Link(s)

Download

Direct download files get automatically deleted after a month or so. Posted on: 08/08/2022

[collapse]
Magnet Link

Magnet

Headhunters.2011.LIMITED.1080p.BluRay.x264-USURY- 8.74 GB

[collapse]

Media information

General
Format : Matroska
Format version : Version 4
File size : 1.10 GiB
Duration : 1 h 40 min
Overall bit rate : 1 569 kb/s
Movie name : Headhunters.2011.DUAL-AUDIO.NOR-ENG.720p.10bit.BluRay.6CH.x265.HEVC

Video
ID : 1
Format : HEVC
Format/Info : High Efficiency Video Coding
Format profile : Main [email protected]@Main
Codec ID : V_MPEGH/ISO/HEVC
Duration : 1 h 40 min
Bit rate : 988 kb/s
Width : 1 280 pixels
Height : 536 pixels
Display aspect ratio : 2.40:1
Frame rate mode : Constant
Frame rate : 23.976 (24000/1001) FPS
Color space : YUV
Chroma subsampling : 4:2:0 (Type 0)
Bit depth : 10 bits
Bits/(Pixel*Frame) : 0.060
Stream size : 709 MiB (63%)
Default : Yes
Forced : No
Color range : Limited

Audio #1
ID : 2
Format : AAC LC
Codec ID : A_AAC-2
Duration : 1 h 40 min
Bit rate : 288 kb/s
Channel(s) : 6 channels
Channel layout : L R C Cb Lb Rb
Sampling rate : 48.0 kHz
Frame rate : 46.875 FPS (1024 SPF)
Compression mode : Lossy
Delay relative to video : -21 ms
Stream size : 207 MiB (18%)
Language : Norwegian
Default : Yes
Forced : No

Audio #2
ID : 3
Format : AAC LC
Codec ID : A_AAC-2
Duration : 1 h 40 min
Bit rate : 288 kb/s
Channel(s) : 6 channels
Channel layout : L R C Cb Lb Rb
Sampling rate : 48.0 kHz
Frame rate : 46.875 FPS (1024 SPF)
Compression mode : Lossy
Delay relative to video : -21 ms
Stream size : 207 MiB (18%)
Language : English
Default : No
Forced : No

Text #1
ID : 4
Format : UTF-8
Codec ID : S_TEXT/UTF8
Codec ID/Info : UTF-8 Plain Text
Duration : 1 h 36 min
Bit rate : 43 b/s
Frame rate : 0.144 FPS
Count of elements : 838
Stream size : 30.9 KiB (0%)
Language : English
Default : Yes
Forced : No

Text #2
ID : 5
Format : UTF-8
Codec ID : S_TEXT/UTF8
Codec ID/Info : UTF-8 Plain Text
Duration : 1 h 36 min
Bit rate : 0 b/s
Frame rate : 0.001 FPS
Count of elements : 5
Stream size : 108 Bytes (0%)
Title : Forced
Language : English
Default : No
Forced : No

[collapse]
Download Link(s)

Download

Direct download files get automatically deleted after a month or so. Posted on: 08/08/2022

[collapse]
Magnet Link

Magnet

Headhunters.2011.LIMITED.1080p.BluRay.x264-USURY- 8.74 GB

[collapse]

Media information

General
Format : Matroska
Format version : Version 4
File size : 1.19 GiB
Duration : 1 h 40 min
Overall bit rate : 1 695 kb/s
Movie name : Headhunters.2011.1080p.10bit.BluRay.6CH.x265.HEVC

Video
ID : 1
Format : HEVC
Format/Info : High Efficiency Video Coding
Format profile : Main [email protected]@Main
Codec ID : V_MPEGH/ISO/HEVC
Duration : 1 h 40 min
Bit rate : 1 501 kb/s
Width : 1 920 pixels
Height : 800 pixels
Display aspect ratio : 2.40:1
Frame rate mode : Constant
Frame rate : 23.976 (24000/1001) FPS
Color space : YUV
Chroma subsampling : 4:2:0
Bit depth : 10 bits
Bits/(Pixel*Frame) : 0.041
Stream size : 1.05 GiB (89%)
Default : Yes
Forced : No
Color range : Limited
Color primaries : BT.709
Transfer characteristics : BT.709
Matrix coefficients : BT.709

Audio
ID : 2
Format : AAC LC
Codec ID : A_AAC-2
Duration : 1 h 40 min
Bit rate : 192 kb/s
Channel(s) : 6 channels
Channel layout : C L R Ls Rs LFE
Sampling rate : 48.0 kHz
Frame rate : 46.875 FPS (1024 SPF)
Compression mode : Lossy
Delay relative to video : -21 ms
Stream size : 138 MiB (11%)
Language : Norwegian
Default : Yes
Forced : No

Text
ID : 3
Format : UTF-8
Codec ID : S_TEXT/UTF8
Codec ID/Info : UTF-8 Plain Text
Duration : 1 h 37 min
Bit rate : 43 b/s
Count of elements : 839
Stream size : 30.9 KiB (0%)
Language : English
Default : Yes
Forced : No

[collapse]
Download Link(s)

Download

[RE-UP]-Direct download files get automatically deleted after a month or so. Posted on: 08/05/2022

[collapse]
Magnet Link

Magnet

Headhunters.2011.LIMITED.1080p.BluRay.x264-USURY- 8.74 GB

[collapse]

Media information

General
Format : Matroska
Format version : Version 4
File size : 364 MiB
Duration : 1 h 40 min
Overall bit rate : 509 kb/s
Movie name : Headhunters.2011.720p.10bit.BluRay.2CH.x265.HEVC

Video
ID : 1
Format : HEVC
Format/Info : High Efficiency Video Coding
Format profile : Main [email protected]@Main
Codec ID : V_MPEGH/ISO/HEVC
Duration : 1 h 40 min
Bit rate : 455 kb/s
Width : 1 280 pixels
Height : 532 pixels
Display aspect ratio : 2.40:1
Frame rate mode : Constant
Frame rate : 24.000 FPS
Color space : YUV
Chroma subsampling : 4:2:0
Bit depth : 10 bits
Bits/(Pixel*Frame) : 0.028
Stream size : 325 MiB (89%)
Default : Yes
Forced : No

Audio
ID : 2
Format : Opus
Codec ID : A_OPUS
Duration : 1 h 40 min
Bit rate : 52.0 kb/s
Channel(s) : 2 channels
Channel layout : L R
Sampling rate : 48.0 kHz
Frame rate : 50.000 FPS (960 SPF)
Compression mode : Lossy
Stream size : 37.2 MiB (10%)
Language : Norwegian Bokmal
Default : No
Forced : No

Text
ID : 3
Format : UTF-8
Codec ID : S_TEXT/UTF8
Codec ID/Info : UTF-8 Plain Text
Duration : 1 h 36 min
Bit rate : 34 b/s
Count of elements : 596
Stream size : 24.5 KiB (0%)
Language : English
Default : Yes
Forced : No

[collapse]
Download Link(s)

Download

[RE-UP]-Direct download files get automatically deleted after a month or so. Posted on: 08/05/2022

[collapse]
Magnet Link

Magnet

Headhunters.2011.LIMITED.1080p.BluRay.x264-USURY- 8.74 GB

[collapse]

You may also like...

error: nah :p~