Harry Potter and the Deathly Hallows: Part 2 (2011)

PG-13 | 2h 10min | Adventure, Drama, Fantasy | 15 July 2011 (USA)

Harry, Ron, and Hermione search for Voldemort’s remaining Horcruxes in their effort to destroy the Dark Lord as the final battle rages on at Hogwarts.

Watch trailer

Media information

General
Format : Matroska
Format version : Version 4
File size : 2.57 GiB
Duration : 2 h 10 min
Overall bit rate : 2 825 kb/s
Movie name : Harry.Potter.and.the.Deathly.Hallows.Part.2.2011.1080p.10bit.BluRay.8CH.x265.HEVC

Video
ID : 1
Format : HEVC
Format/Info : High Efficiency Video Coding
Format profile : Main [email protected]@Main
Codec ID : V_MPEGH/ISO/HEVC
Duration : 2 h 10 min
Bit rate : 2 566 kb/s
Width : 1 920 pixels
Height : 800 pixels
Display aspect ratio : 2.40:1
Frame rate mode : Constant
Frame rate : 23.976 (24000/1001) FPS
Color space : YUV
Chroma subsampling : 4:2:0 (Type 0)
Bit depth : 10 bits
Bits/(Pixel*Frame) : 0.070
Stream size : 2.34 GiB (91%)
Default : Yes
Forced : No
Color range : Limited

Audio
ID : 2
Format : AAC LC
Codec ID : A_AAC-2
Duration : 2 h 10 min
Bit rate : 257 kb/s
Channel(s) : 8 channels
Channel layout : C L R Ls Rs Lw Rw LFE
Sampling rate : 48.0 kHz
Frame rate : 46.875 FPS (1024 SPF)
Compression mode : Lossy
Stream size : 239 MiB (9%)
Language : English
Default : Yes
Forced : No

Text
ID : 3
Format : UTF-8
Codec ID : S_TEXT/UTF8
Codec ID/Info : UTF-8 Plain Text
Duration : 1 h 54 min
Bit rate : 33 b/s
Frame rate : 0.167 FPS
Count of elements : 1152
Stream size : 28.0 KiB (0%)
Language : English
Default : Yes
Forced : No

[collapse]
Download Link(s)

Download

Direct download files get automatically deleted after a month or so. Posted on : 01/21/2023

[collapse]
Magnet Link

Magnet

Harry.Potter.and.the.Deathly.Hallows.Part.2.2011.1080p.BluRay.x264.DTS-X.7.1-SWTYBLZ-14.89 GB

[collapse]

Media information

General
Format : Matroska
Format version : Version 4
File size : 1.38 GiB
Duration : 2 h 10 min
Overall bit rate : 1 513 kb/s
Movie name : Harry.Potter.and.the.Deathly.Hallows.Part.2.2011.720p.10bit.BluRay.8CH.x265.HEVC

Video
ID : 1
Format : HEVC
Format/Info : High Efficiency Video Coding
Format profile : Main [email protected]@Main
Codec ID : V_MPEGH/ISO/HEVC
Duration : 2 h 10 min
Bit rate : 1 254 kb/s
Width : 1 280 pixels
Height : 536 pixels
Display aspect ratio : 2.40:1
Frame rate mode : Constant
Frame rate : 23.976 (24000/1001) FPS
Color space : YUV
Chroma subsampling : 4:2:0 (Type 0)
Bit depth : 10 bits
Bits/(Pixel*Frame) : 0.076
Stream size : 1.14 GiB (83%)
Default : Yes
Forced : No
Color range : Limited

Audio
ID : 2
Format : AAC LC
Codec ID : A_AAC-2
Duration : 2 h 10 min
Bit rate : 257 kb/s
Channel(s) : 8 channels
Channel layout : C L R Ls Rs Lw Rw LFE
Sampling rate : 48.0 kHz
Frame rate : 46.875 FPS (1024 SPF)
Compression mode : Lossy
Stream size : 239 MiB (17%)
Language : English
Default : Yes
Forced : No

Text
ID : 3
Format : UTF-8
Codec ID : S_TEXT/UTF8
Codec ID/Info : UTF-8 Plain Text
Duration : 1 h 54 min
Bit rate : 33 b/s
Frame rate : 0.167 FPS
Count of elements : 1152
Stream size : 28.0 KiB (0%)
Language : English
Default : Yes
Forced : No

[collapse]
Download Link(s)

Download

Direct download files get automatically deleted after a month or so. Posted on : 01/21/2023

[collapse]
Magnet Link

Magnet

Harry.Potter.and.the.Deathly.Hallows.Part.2.2011.1080p.BluRay.x264.DTS-X.7.1-SWTYBLZ-14.89 GB

[collapse]

You may also like...

error: nah :p~