Harry Potter and the Deathly Hallows: Part 1 (2010)

PG-13 | 2h 26min | Adventure, Family, Fantasy | 19 November 2010 (USA)

As Harry (Daniel Radcliffe), Ron (Rupert Grint), and Hermione (Emma Watson) race against time and evil to destroy the Horcruxes, they uncover the existence of the three most powerful objects in the wizarding world: the Deathly Hallows.

Watch trailer

Media information

General
Format : Matroska
Format version : Version 4
File size : 2.89 GiB
Duration : 2 h 26 min
Overall bit rate : 2 827 kb/s
Movie name : Harry.Potter.and.the.Deathly.Hallows.Part.1.2010.1080p.10bit.BluRay.8CH.x265.HEVC

Video
ID : 1
Format : HEVC
Format/Info : High Efficiency Video Coding
Format profile : Main [email protected]@Main
Codec ID : V_MPEGH/ISO/HEVC
Duration : 2 h 26 min
Bit rate : 2 568 kb/s
Width : 1 920 pixels
Height : 800 pixels
Display aspect ratio : 2.40:1
Frame rate mode : Constant
Frame rate : 23.976 (24000/1001) FPS
Color space : YUV
Chroma subsampling : 4:2:0 (Type 0)
Bit depth : 10 bits
Bits/(Pixel*Frame) : 0.070
Stream size : 2.62 GiB (91%)
Default : Yes
Forced : No
Color range : Limited

Audio
ID : 2
Format : AAC LC
Codec ID : A_AAC-2
Duration : 2 h 26 min
Bit rate : 257 kb/s
Channel(s) : 8 channels
Channel layout : C L R Ls Rs Lw Rw LFE
Sampling rate : 48.0 kHz
Frame rate : 46.875 FPS (1024 SPF)
Compression mode : Lossy
Stream size : 268 MiB (9%)
Language : English
Default : Yes
Forced : No

Text
ID : 3
Format : UTF-8
Codec ID : S_TEXT/UTF8
Codec ID/Info : UTF-8 Plain Text
Duration : 2 h 11 min
Bit rate : 43 b/s
Frame rate : 0.200 FPS
Count of elements : 1575
Stream size : 41.6 KiB (0%)
Language : English
Default : Yes
Forced : No

[collapse]
Download Link(s)

Download

Direct download files get automatically deleted after a month or so. Posted on : 01/21/2023

[collapse]
Magnet Link

Magnet

Harry.Potter.and.the.Deathly.Hallows.Part.1.2010.1080p.BluRay.x264.DTS-X.7.1-SWTYBLZ-13.64 GB

[collapse]

Media information

General
Format : Matroska
Format version : Version 4
File size : 1.54 GiB
Duration : 2 h 26 min
Overall bit rate : 1 514 kb/s
Movie name : Harry.Potter.and.the.Deathly.Hallows.Part.1.2010.720p.10bit.BluRay.8CH.x265.HEVC

Video
ID : 1
Format : HEVC
Format/Info : High Efficiency Video Coding
Format profile : Main [email protected]@Main
Codec ID : V_MPEGH/ISO/HEVC
Duration : 2 h 26 min
Bit rate : 1 255 kb/s
Width : 1 280 pixels
Height : 536 pixels
Display aspect ratio : 2.40:1
Frame rate mode : Constant
Frame rate : 23.976 (24000/1001) FPS
Color space : YUV
Chroma subsampling : 4:2:0 (Type 0)
Bit depth : 10 bits
Bits/(Pixel*Frame) : 0.076
Stream size : 1.28 GiB (83%)
Default : Yes
Forced : No
Color range : Limited

Audio
ID : 2
Format : AAC LC
Codec ID : A_AAC-2
Duration : 2 h 26 min
Bit rate : 257 kb/s
Channel(s) : 8 channels
Channel layout : C L R Ls Rs Lw Rw LFE
Sampling rate : 48.0 kHz
Frame rate : 46.875 FPS (1024 SPF)
Compression mode : Lossy
Stream size : 268 MiB (17%)
Language : English
Default : Yes
Forced : No

Text
ID : 3
Format : UTF-8
Codec ID : S_TEXT/UTF8
Codec ID/Info : UTF-8 Plain Text
Duration : 2 h 11 min
Bit rate : 43 b/s
Frame rate : 0.200 FPS
Count of elements : 1575
Stream size : 41.6 KiB (0%)
Language : English
Default : Yes
Forced : No

[collapse]
Download Link(s)

Download

Direct download files get automatically deleted after a month or so. Posted on : 01/21/2023

[collapse]
Magnet Link

Magnet

Harry.Potter.and.the.Deathly.Hallows.Part.1.2010.1080p.BluRay.x264.DTS-X.7.1-SWTYBLZ-13.64 GB

[collapse]

You may also like...

error: nah :p~