Hacksaw Ridge (2016)

R | 2h 19min | Biography, Drama, History | 4 November 2016 (USA)

WWII American Army Medic Desmond T. Doss, who served during the Battle of Okinawa, refuses to kill people, and becomes the first man in American history to receive the Medal of Honor without firing a shot.

Watch trailer

Media information

General
Format : Matroska
Format version : Version 4
File size : 3.19 GiB
Duration : 2 h 19 min
Overall bit rate : 3 281 kb/s
Movie name : Hacksaw.Ridge.2016.2160p.10bit.BluRay.8CH.x265.HEVC

Video
ID : 1
Format : HEVC
Format/Info : High Efficiency Video Coding
Format profile : Main [email protected]@Main
Codec ID : V_MPEGH/ISO/HEVC
Duration : 2 h 19 min
Bit rate : 2 998 kb/s
Width : 3 840 pixels
Height : 1 610 pixels
Display aspect ratio : 2.40:1
Frame rate mode : Constant
Frame rate : 23.976 (24000/1001) FPS
Color space : YUV
Chroma subsampling : 4:2:0
Bit depth : 10 bits
Bits/(Pixel*Frame) : 0.020
Stream size : 2.92 GiB (91%)
Default : Yes
Forced : No
Color range : Limited
Color primaries : BT.709
Transfer characteristics : BT.709
Matrix coefficients : BT.709

Audio
ID : 2
Format : AAC LC
Codec ID : A_AAC-2
Duration : 2 h 19 min
Bit rate : 256 kb/s
Channel(s) : 8 channels
Channel layout : C L R Ls Rs Lw Rw LFE
Sampling rate : 48.0 kHz
Frame rate : 46.875 FPS (1024 SPF)
Compression mode : Lossy
Delay relative to video : -31 ms
Stream size : 256 MiB (8%)
Language : English
Default : Yes
Forced : No

Text #1
ID : 3
Format : ASS
Codec ID : S_TEXT/ASS
Duration : 2 h 8 min
Bit rate : 77 b/s
Count of elements : 1337
Compression mode : Lossless
Stream size : 73.6 KiB (0%)
Language : English
Default : Yes
Forced : Yes

Text #2
ID : 4
Format : PGS
Muxing mode : zlib
Codec ID : S_HDMV/PGS
Duration : 2 h 9 min
Bit rate : 32.7 kb/s
Count of elements : 3310
Stream size : 30.3 MiB (1%)
Language : English
Default : No
Forced : No

Text #3
ID : 5
Format : PGS
Muxing mode : zlib
Codec ID : S_HDMV/PGS
Duration : 2 h 12 min
Bit rate : 25.9 kb/s
Count of elements : 2598
Stream size : 24.5 MiB (1%)
Language : Spanish
Default : No
Forced : No

[collapse]
Download Link(s)

Part01 Part02

Direct download files get automatically deleted after a month or so. Posted on: 05/30/2020

[collapse]
Magnet Link

Magnet

Hacksaw.Ridge.2016.2160p.BluRay.x265.10bit.SDR.DTS-HD.MA.TrueHD.7.1.Atmos-SWTYBLZ-34.05 GB

[collapse]

Media information

General
Format : Matroska
Format version : Version 4
File size : 1.71 GiB
Duration : 2 h 19 min
Overall bit rate : 1 759 kb/s
Movie name : Hacksaw.Ridge.2016.1080p.10bit.BluRay.8CH.x265.HEVC

Video
ID : 1
Format : HEVC
Format/Info : High Efficiency Video Coding
Format profile : Main [email protected]@Main
Codec ID : V_MPEGH/ISO/HEVC
Duration : 2 h 19 min
Bit rate : 1 500 kb/s
Width : 1 920 pixels
Height : 806 pixels
Display aspect ratio : 2.40:1
Frame rate mode : Constant
Frame rate : 23.976 (24000/1001) FPS
Color space : YUV
Chroma subsampling : 4:2:0
Bit depth : 10 bits
Bits/(Pixel*Frame) : 0.040
Stream size : 1.46 GiB (85%)
Default : Yes
Forced : No
Color range : Limited
Color primaries : BT.709
Transfer characteristics : BT.709
Matrix coefficients : BT.709

Audio
ID : 2
Format : AAC LC
Codec ID : A_AAC-2
Duration : 2 h 19 min
Bit rate : 256 kb/s
Channel(s) : 8 channels
Channel layout : C L R Ls Rs Lw Rw LFE
Sampling rate : 48.0 kHz
Frame rate : 46.875 FPS (1024 SPF)
Compression mode : Lossy
Delay relative to video : -31 ms
Stream size : 256 MiB (15%)
Language : English
Default : Yes
Forced : No

Text
ID : 3
Format : UTF-8
Codec ID : S_TEXT/UTF8
Codec ID/Info : UTF-8 Plain Text
Duration : 2 h 8 min
Bit rate : 48 b/s
Count of elements : 1337
Stream size : 45.8 KiB (0%)
Language : English
Default : Yes
Forced : No

[collapse]
Download Link(s)

Download

Direct download files get automatically deleted after a month or so. Posted on: 05/28/2020

[collapse]
Magnet Link

Magnet

Hacksaw.Ridge.2016.2160p.BluRay.x265.10bit.SDR.DTS-HD.MA.TrueHD.7.1.Atmos-SWTYBLZ-34.05 GB

[collapse]

Media information

General
Format : Matroska
Format version : Version 4
File size : 465 MiB
Duration : 2 h 19 min
Overall bit rate : 466 kb/s
Movie name : Hacksaw.Ridge.2016.720p.10bit.BluRay.2CH.x265.HEVC

Video
ID : 1
Format : HEVC
Format/Info : High Efficiency Video Coding
Format profile : Main [email protected]@Main
Codec ID : V_MPEGH/ISO/HEVC
Duration : 2 h 19 min
Bit rate : 412 kb/s
Width : 1 280 pixels
Height : 536 pixels
Display aspect ratio : 2.40:1
Frame rate mode : Constant
Frame rate : 23.976 (24000/1001) FPS
Color space : YUV
Chroma subsampling : 4:2:0
Bit depth : 10 bits
Bits/(Pixel*Frame) : 0.025
Stream size : 410 MiB (88%)
Default : Yes
Forced : No

Audio
ID : 2
Format : Opus
Codec ID : A_OPUS
Duration : 2 h 19 min
Bit rate : 52.4 kb/s
Channel(s) : 2 channels
Channel layout : L R
Sampling rate : 48.0 kHz
Frame rate : 50.000 FPS (960 SPF)
Compression mode : Lossy
Stream size : 52.2 MiB (11%)
Language : English
Default : Yes
Forced : No

Text
ID : 3
Format : UTF-8
Codec ID : S_TEXT/UTF8
Codec ID/Info : UTF-8 Plain Text
Duration : 2 h 9 min
Bit rate : 55 b/s
Count of elements : 1655
Stream size : 53.2 KiB (0%)
Language : English
Default : Yes
Forced : No

[collapse]
Download Link(s)

Download

Direct download files get automatically deleted after a month or so. Posted on: 05/28/2020

[collapse]
Magnet Link

Magnet

Hacksaw.Ridge.2016.1080p.BluRay.x264-SPARKS-9.84 GB

[collapse]

You may also like...

error: nah :p~