Goodfellas (1990)

R | 2h 25min | Biography, Crime, Drama

The story of Henry Hill and his life in the mob, covering his relationship with his wife Karen Hill and his mob partners Jimmy Conway and Tommy DeVito in the Italian-American crime syndicate.

Watch trailer

Media information

General
Format : Matroska
Format version : Version 4
File size : 3.10 GiB
Duration : 2 h 25 min
Overall bit rate : 3 056 kb/s
Movie name : Goodfellas.1990.REMASTERED.1080p.10bit.BluRay.6CH.x265.HEVC

Video
ID : 1
Format : HEVC
Format/Info : High Efficiency Video Coding
Format profile : Main [email protected]@Main
Codec ID : V_MPEGH/ISO/HEVC
Duration : 2 h 25 min
Bit rate : 2 265 kb/s
Width : 1 920 pixels
Height : 1 080 pixels
Display aspect ratio : 16:9
Frame rate mode : Constant
Frame rate : 23.976 (24000/1001) FPS
Color space : YUV
Chroma subsampling : 4:2:0 (Type 0)
Bit depth : 10 bits
Bits/(Pixel*Frame) : 0.046
Stream size : 2.30 GiB (74%)
Default : Yes
Forced : No
Color range : Limited

Audio
ID : 2
Format : AAC LC
Codec ID : A_AAC-2
Duration : 2 h 25 min
Bit rate : 384 kb/s
Channel(s) : 6 channels
Channel layout : L R C Cb Lb Rb
Sampling rate : 48.0 kHz
Frame rate : 46.875 FPS (1024 SPF)
Compression mode : Lossy
Delay relative to video : -21 ms
Stream size : 400 MiB (13%)
Language : English
Default : Yes
Forced : No

Text #1
ID : 3
Format : UTF-8
Codec ID : S_TEXT/UTF8
Codec ID/Info : UTF-8 Plain Text
Duration : 2 h 18 min
Bit rate : 87 b/s
Count of elements : 2053
Stream size : 88.8 KiB (0%)
Language : English
Default : No
Forced : No

Text #2
ID : 4
Format : UTF-8
Codec ID : S_TEXT/UTF8
Codec ID/Info : UTF-8 Plain Text
Duration : 2 h 18 min
Bit rate : 89 b/s
Count of elements : 2171
Stream size : 90.8 KiB (0%)
Title : SDH
Language : English
Default : Yes
Forced : No

Text #3
ID : 5
Format : PGS
Muxing mode : zlib
Codec ID : S_HDMV/PGS
Duration : 2 h 24 min
Bit rate : 47.3 kb/s
Count of elements : 4388
Stream size : 48.8 MiB (3%)
Language : English
Default : No
Forced : No

Text #4
ID : 6
Format : PGS
Muxing mode : zlib
Codec ID : S_HDMV/PGS
Duration : 2 h 24 min
Bit rate : 36.9 kb/s
Count of elements : 3970
Stream size : 38.2 MiB (2%)
Language : French
Default : No
Forced : No

Text #5
ID : 7
Format : PGS
Muxing mode : zlib
Codec ID : S_HDMV/PGS
Duration : 2 h 24 min
Bit rate : 41.6 kb/s
Count of elements : 4552
Stream size : 43.1 MiB (2%)
Language : German
Default : No
Forced : No

Text #6
ID : 8
Format : PGS
Muxing mode : zlib
Codec ID : S_HDMV/PGS
Duration : 2 h 24 min
Bit rate : 42.3 kb/s
Count of elements : 4422
Stream size : 43.7 MiB (2%)
Language : Italian
Default : No
Forced : No

Text #7
ID : 9
Format : PGS
Muxing mode : zlib
Codec ID : S_HDMV/PGS
Duration : 2 h 24 min
Bit rate : 38.6 kb/s
Count of elements : 4034
Stream size : 40.0 MiB (2%)
Language : Spanish
Default : No
Forced : No

Text #8
ID : 10
Format : PGS
Muxing mode : zlib
Codec ID : S_HDMV/PGS
Duration : 2 h 24 min
Bit rate : 35.8 kb/s
Count of elements : 3868
Stream size : 37.0 MiB (2%)
Language : Dutch
Default : No
Forced : No

Text #9
ID : 11
Format : PGS
Muxing mode : zlib
Codec ID : S_HDMV/PGS
Duration : 2 h 24 min
Bit rate : 39.2 kb/s
Count of elements : 4222
Stream size : 40.7 MiB (2%)
Language : Chinese
Default : No
Forced : No

Text #10
ID : 12
Format : PGS
Muxing mode : zlib
Codec ID : S_HDMV/PGS
Duration : 2 h 24 min
Bit rate : 37.1 kb/s
Count of elements : 3968
Stream size : 38.3 MiB (2%)
Language : Chinese
Default : No
Forced : No

Text #11
ID : 13
Format : PGS
Muxing mode : zlib
Codec ID : S_HDMV/PGS
Duration : 2 h 24 min
Bit rate : 37.2 kb/s
Count of elements : 3960
Stream size : 38.5 MiB (2%)
Language : Chinese
Default : No
Forced : No

Text #12
ID : 14
Format : PGS
Muxing mode : zlib
Codec ID : S_HDMV/PGS
Duration : 2 h 24 min
Bit rate : 31.5 kb/s
Count of elements : 4198
Stream size : 32.5 MiB (2%)
Language : Korean
Default : No
Forced : No

Text #13
ID : 15
Format : PGS
Muxing mode : zlib
Codec ID : S_HDMV/PGS
Duration : 2 h 24 min
Bit rate : 36.3 kb/s
Count of elements : 4122
Stream size : 37.6 MiB (2%)
Language : Spanish
Default : No
Forced : No

Text #14
ID : 16
Format : PGS
Muxing mode : zlib
Codec ID : S_HDMV/PGS
Duration : 2 h 24 min
Bit rate : 39.3 kb/s
Count of elements : 3862
Stream size : 40.6 MiB (2%)
Language : Portuguese
Default : No
Forced : No

Text #15
ID : 17
Format : PGS
Muxing mode : zlib
Codec ID : S_HDMV/PGS
Duration : 2 h 24 min
Bit rate : 34.3 kb/s
Count of elements : 3962
Stream size : 35.4 MiB (2%)
Language : Czech
Default : No
Forced : No

Text #16
ID : 18
Format : PGS
Muxing mode : zlib
Codec ID : S_HDMV/PGS
Duration : 2 h 24 min
Bit rate : 34.9 kb/s
Count of elements : 3970
Stream size : 36.1 MiB (2%)
Language : Greek
Default : No
Forced : No

Text #17
ID : 19
Format : PGS
Muxing mode : zlib
Codec ID : S_HDMV/PGS
Duration : 2 h 24 min
Bit rate : 27.6 kb/s
Count of elements : 3976
Stream size : 28.6 MiB (2%)
Language : Hebrew
Default : No
Forced : No

Text #18
ID : 20
Format : PGS
Muxing mode : zlib
Duration : 2 h 24 min
Bit rate : 42.3 kb/s
Count of elements : 4142
Stream size : 43.8 MiB (2%)
Language : Hungarian
Default : No
Forced : No

Text #19
ID : 21
Format : PGS
Muxing mode : zlib
Codec ID : S_HDMV/PGS
Duration : 2 h 24 min
Bit rate : 36.6 kb/s
Count of elements : 4130
Stream size : 37.8 MiB (2%)
Language : Polish
Default : No
Forced : No

Text #20
ID : 22
Format : PGS
Muxing mode : zlib
Codec ID : S_HDMV/PGS
Duration : 2 h 24 min
Bit rate : 37.5 kb/s
Count of elements : 3974
Stream size : 38.8 MiB (2%)
Language : Portuguese
Default : No
Forced : No

Text #21
ID : 23
Format : PGS
Muxing mode : zlib
Codec ID : S_HDMV/PGS
Duration : 2 h 24 min
Bit rate : 38.6 kb/s
Count of elements : 3416
Stream size : 39.8 MiB (2%)
Language : Romanian
Default : No
Forced : No

Text #22
ID : 24
Format : PGS
Muxing mode : zlib
Codec ID : S_HDMV/PGS
Duration : 2 h 24 min
Bit rate : 44.1 kb/s
Count of elements : 4182
Stream size : 45.6 MiB (2%)
Language : Russian
Default : No
Forced : No

Text #23
ID : 25
Format : PGS
Muxing mode : zlib
Codec ID : S_HDMV/PGS
Duration : 2 h 24 min
Bit rate : 36.8 kb/s
Count of elements : 3954
Stream size : 38.0 MiB (2%)
Language : Thai
Default : No
Forced : No

Text #24
ID : 26
Format : PGS
Muxing mode : zlib
Codec ID : S_HDMV/PGS
Duration : 2 h 24 min
Bit rate : 40.2 kb/s
Count of elements : 3922
Stream size : 41.5 MiB (2%)
Language : Turkish
Default : No
Forced : No

[collapse]
Download Link(s)

Download

Direct download files get automatically deleted after a month or so. Posted on : 06/12/2022

[collapse]
Magnet Link

Magnet

Goodfellas.1990.REMASTERED.1080p.BluRay.REMUX.AVC.DTS-HD.MA.5.1-FGT-35.02 GB

[collapse]

Media information

General
Format : Matroska
Format version : Version 4
File size : 1.81 GiB
Duration : 2 h 25 min
Overall bit rate : 1 781 kb/s
Movie name : Goodfellas.1990.REMASTERED.720p.10bit.BluRay.6CH.x265.HEVC

Video
ID : 1
Format : HEVC
Format/Info : High Efficiency Video Coding
Format profile : Main [email protected]@Main
Codec ID : V_MPEGH/ISO/HEVC
Duration : 2 h 25 min
Bit rate : 1 086 kb/s
Width : 1 280 pixels
Height : 720 pixels
Display aspect ratio : 16:9
Frame rate mode : Constant
Frame rate : 23.976 (24000/1001) FPS
Color space : YUV
Chroma subsampling : 4:2:0 (Type 0)
Bit depth : 10 bits
Bits/(Pixel*Frame) : 0.049
Stream size : 1.10 GiB (61%)
Default : Yes
Forced : No
Color range : Limited

Audio
ID : 2
Format : AAC LC
Codec ID : A_AAC-2
Duration : 2 h 25 min
Bit rate : 288 kb/s
Channel(s) : 6 channels
Channel layout : L R C Cb Lb Rb
Sampling rate : 48.0 kHz
Frame rate : 46.875 FPS (1024 SPF)
Compression mode : Lossy
Delay relative to video : -21 ms
Stream size : 299 MiB (16%)
Language : English
Default : Yes
Forced : No

Text #1
ID : 3
Format : UTF-8
Codec ID : S_TEXT/UTF8
Codec ID/Info : UTF-8 Plain Text
Duration : 2 h 18 min
Bit rate : 87 b/s
Count of elements : 2053
Stream size : 88.8 KiB (0%)
Language : English
Default : No
Forced : No

Text #2
ID : 4
Format : UTF-8
Codec ID : S_TEXT/UTF8
Codec ID/Info : UTF-8 Plain Text
Duration : 2 h 18 min
Bit rate : 89 b/s
Count of elements : 2171
Stream size : 90.8 KiB (0%)
Title : SDH
Language : English
Default : Yes
Forced : No

Text #3
ID : 5
Format : PGS
Muxing mode : zlib
Codec ID : S_HDMV/PGS
Duration : 2 h 24 min
Bit rate : 47.3 kb/s
Count of elements : 4388
Stream size : 48.8 MiB (3%)
Language : English
Default : No
Forced : No

Text #4
ID : 6
Format : PGS
Muxing mode : zlib
Codec ID : S_HDMV/PGS
Duration : 2 h 24 min
Bit rate : 36.9 kb/s
Count of elements : 3970
Stream size : 38.2 MiB (2%)
Language : French
Default : No
Forced : No

Text #5
ID : 7
Format : PGS
Muxing mode : zlib
Codec ID : S_HDMV/PGS
Duration : 2 h 24 min
Bit rate : 41.6 kb/s
Count of elements : 4552
Stream size : 43.1 MiB (2%)
Language : German
Default : No
Forced : No

Text #6
ID : 8
Format : PGS
Muxing mode : zlib
Codec ID : S_HDMV/PGS
Duration : 2 h 24 min
Bit rate : 42.3 kb/s
Count of elements : 4422
Stream size : 43.7 MiB (2%)
Language : Italian
Default : No
Forced : No

Text #7
ID : 9
Format : PGS
Muxing mode : zlib
Codec ID : S_HDMV/PGS
Duration : 2 h 24 min
Bit rate : 38.6 kb/s
Count of elements : 4034
Stream size : 40.0 MiB (2%)
Language : Spanish
Default : No
Forced : No

Text #8
ID : 10
Format : PGS
Muxing mode : zlib
Codec ID : S_HDMV/PGS
Duration : 2 h 24 min
Bit rate : 35.8 kb/s
Count of elements : 3868
Stream size : 37.0 MiB (2%)
Language : Dutch
Default : No
Forced : No

Text #9
ID : 11
Format : PGS
Muxing mode : zlib
Codec ID : S_HDMV/PGS
Duration : 2 h 24 min
Bit rate : 39.2 kb/s
Count of elements : 4222
Stream size : 40.7 MiB (2%)
Language : Chinese
Default : No
Forced : No

Text #10
ID : 12
Format : PGS
Muxing mode : zlib
Codec ID : S_HDMV/PGS
Duration : 2 h 24 min
Bit rate : 37.1 kb/s
Count of elements : 3968
Stream size : 38.3 MiB (2%)
Language : Chinese
Default : No
Forced : No

Text #11
ID : 13
Format : PGS
Muxing mode : zlib
Codec ID : S_HDMV/PGS
Duration : 2 h 24 min
Bit rate : 37.2 kb/s
Count of elements : 3960
Stream size : 38.5 MiB (2%)
Language : Chinese
Default : No
Forced : No

Text #12
ID : 14
Format : PGS
Muxing mode : zlib
Codec ID : S_HDMV/PGS
Duration : 2 h 24 min
Bit rate : 31.5 kb/s
Count of elements : 4198
Stream size : 32.5 MiB (2%)
Language : Korean
Default : No
Forced : No

Text #13
ID : 15
Format : PGS
Muxing mode : zlib
Codec ID : S_HDMV/PGS
Duration : 2 h 24 min
Bit rate : 36.3 kb/s
Count of elements : 4122
Stream size : 37.6 MiB (2%)
Language : Spanish
Default : No
Forced : No

Text #14
ID : 16
Format : PGS
Muxing mode : zlib
Codec ID : S_HDMV/PGS
Duration : 2 h 24 min
Bit rate : 39.3 kb/s
Count of elements : 3862
Stream size : 40.6 MiB (2%)
Language : Portuguese
Default : No
Forced : No

Text #15
ID : 17
Format : PGS
Muxing mode : zlib
Codec ID : S_HDMV/PGS
Duration : 2 h 24 min
Bit rate : 34.3 kb/s
Count of elements : 3962
Stream size : 35.4 MiB (2%)
Language : Czech
Default : No
Forced : No

Text #16
ID : 18
Format : PGS
Muxing mode : zlib
Codec ID : S_HDMV/PGS
Duration : 2 h 24 min
Bit rate : 34.9 kb/s
Count of elements : 3970
Stream size : 36.1 MiB (2%)
Language : Greek
Default : No
Forced : No

Text #17
ID : 19
Format : PGS
Muxing mode : zlib
Codec ID : S_HDMV/PGS
Duration : 2 h 24 min
Bit rate : 27.6 kb/s
Count of elements : 3976
Stream size : 28.6 MiB (2%)
Language : Hebrew
Default : No
Forced : No

Text #18
ID : 20
Format : PGS
Muxing mode : zlib
Duration : 2 h 24 min
Bit rate : 42.3 kb/s
Count of elements : 4142
Stream size : 43.8 MiB (2%)
Language : Hungarian
Default : No
Forced : No

Text #19
ID : 21
Format : PGS
Muxing mode : zlib
Codec ID : S_HDMV/PGS
Duration : 2 h 24 min
Bit rate : 36.6 kb/s
Count of elements : 4130
Stream size : 37.8 MiB (2%)
Language : Polish
Default : No
Forced : No

Text #20
ID : 22
Format : PGS
Muxing mode : zlib
Codec ID : S_HDMV/PGS
Duration : 2 h 24 min
Bit rate : 37.5 kb/s
Count of elements : 3974
Stream size : 38.8 MiB (2%)
Language : Portuguese
Default : No
Forced : No

Text #21
ID : 23
Format : PGS
Muxing mode : zlib
Codec ID : S_HDMV/PGS
Duration : 2 h 24 min
Bit rate : 38.6 kb/s
Count of elements : 3416
Stream size : 39.8 MiB (2%)
Language : Romanian
Default : No
Forced : No

Text #22
ID : 24
Format : PGS
Muxing mode : zlib
Codec ID : S_HDMV/PGS
Duration : 2 h 24 min
Bit rate : 44.1 kb/s
Count of elements : 4182
Stream size : 45.6 MiB (2%)
Language : Russian
Default : No
Forced : No

Text #23
ID : 25
Format : PGS
Muxing mode : zlib
Codec ID : S_HDMV/PGS
Duration : 2 h 24 min
Bit rate : 36.8 kb/s
Count of elements : 3954
Stream size : 38.0 MiB (2%)
Language : Thai
Default : No
Forced : No

Text #24
ID : 26
Format : PGS
Muxing mode : zlib
Codec ID : S_HDMV/PGS
Duration : 2 h 24 min
Bit rate : 40.2 kb/s
Count of elements : 3922
Stream size : 41.5 MiB (2%)
Language : Turkish
Default : No
Forced : No

[collapse]
Download Link(s)

Download

Direct download files get automatically deleted after a month or so. Posted on : 06/12/2022

[collapse]
Magnet Link

Magnet

Goodfellas.1990.REMASTERED.1080p.BluRay.REMUX.AVC.DTS-HD.MA.5.1-FGT-35.02 GB

[collapse]

You may also like...

error: nah :p~