GoldenEye (1995)

PG-13 | 2h 10min | Action, Adventure, Thriller

Years after a friend and fellow 00 agent is killed on a joint mission, a secret space based weapons program known as “GoldenEye” is stolen. James Bond sets out to stop a Russian crime syndicate from using the weapon.

Watch trailer

Media information

General
Format : Matroska
Format version : Version 4
File size : 2.31 GiB
Duration : 2 h 10 min
Overall bit rate : 2 548 kb/s
Movie name : GoldenEye.1995.1080p.10bit.BluRay.6CH.x265.HEVC

Video
ID : 1
Format : HEVC
Format/Info : High Efficiency Video Coding
Format profile : Main [email protected]@Main
Codec ID : V_MPEGH/ISO/HEVC
Duration : 2 h 10 min
Bit rate : 2 153 kb/s
Width : 1 920 pixels
Height : 816 pixels
Display aspect ratio : 2.35:1
Frame rate mode : Variable
Frame rate : 23.976 FPS
Color space : YUV
Chroma subsampling : 4:2:0 (Type 0)
Bit depth : 10 bits
Bits/(Pixel*Frame) : 0.057
Stream size : 1.96 GiB (85%)
Default : Yes
Forced : No
Color range : Limited
Color primaries : BT.709
Transfer characteristics : BT.709
Matrix coefficients : BT.709

Audio
ID : 2
Format : AAC LC
Codec ID : A_AAC-2
Duration : 2 h 10 min
Bit rate : 384 kb/s
Channel(s) : 6 channels
Channel layout : L R C Cb Lb Rb
Sampling rate : 48.0 kHz
Frame rate : 46.875 FPS (1024 SPF)
Compression mode : Lossy
Stream size : 358 MiB (15%)
Language : English
Default : Yes
Forced : No

Text #1
ID : 3
Format : VobSub
Muxing mode : zlib
Codec ID : S_VOBSUB
Duration : 2 h 6 min
Bit rate : 6 739 b/s
Count of elements : 1097
Stream size : 6.11 MiB (0%)
Language : English
Default : No
Forced : No

Text #2
ID : 4
Format : VobSub
Muxing mode : zlib
Codec ID : S_VOBSUB
Duration : 2 h 6 min
Bit rate : 7 090 b/s
Count of elements : 1192
Stream size : 6.42 MiB (0%)
Title : SDH
Language : English
Default : Yes
Forced : No

[collapse]
Download Link(s)

Download

Direct download files get automatically deleted after a month or so. Posted on : 09/14/2021

[collapse]
Magnet Link

Magnet

GoldenEye.1995.Extras.1080p.BluRay.x265.HEVC.10bit.DTS.5.1-9.0 GB

[collapse]

Media information

General
Format : Matroska
Format version : Version 4
File size : 1.27 GiB
Duration : 2 h 10 min
Overall bit rate : 1 394 kb/s
Movie name : GoldenEye.1995.720p.10bit.BluRay.6CH.x265.HEVC

Video
ID : 1
Format : HEVC
Format/Info : High Efficiency Video Coding
Format profile : Main [email protected]@Main
Codec ID : V_MPEGH/ISO/HEVC
Duration : 2 h 10 min
Bit rate : 1 096 kb/s
Width : 1 280 pixels
Height : 544 pixels
Display aspect ratio : 2.35:1
Frame rate mode : Variable
Frame rate : 23.976 FPS
Color space : YUV
Chroma subsampling : 4:2:0 (Type 0)
Bit depth : 10 bits
Bits/(Pixel*Frame) : 0.066
Stream size : 1 019 MiB (79%)
Default : Yes
Forced : No
Color range : Limited
Color primaries : BT.709
Transfer characteristics : BT.709
Matrix coefficients : BT.709

Audio
ID : 2
Format : AAC LC
Codec ID : A_AAC-2
Duration : 2 h 10 min
Bit rate : 288 kb/s
Channel(s) : 6 channels
Channel layout : L R C Cb Lb Rb
Sampling rate : 48.0 kHz
Frame rate : 46.875 FPS (1024 SPF)
Compression mode : Lossy
Stream size : 269 MiB (21%)
Language : English
Default : Yes
Forced : No

Text #1
ID : 3
Format : VobSub
Muxing mode : zlib
Codec ID : S_VOBSUB
Duration : 2 h 6 min
Bit rate : 6 739 b/s
Count of elements : 1097
Stream size : 6.11 MiB (0%)
Language : English
Default : No
Forced : No

Text #2
ID : 4
Format : VobSub
Muxing mode : zlib
Codec ID : S_VOBSUB
Duration : 2 h 6 min
Bit rate : 7 090 b/s
Count of elements : 1192
Stream size : 6.42 MiB (0%)
Title : SDH
Language : English
Default : Yes
Forced : No

[collapse]
Download Link(s)

Download

Direct download files get automatically deleted after a month or so. Posted on : 09/14/2021

[collapse]
Magnet Link

Magnet

GoldenEye.1995.Extras.1080p.BluRay.x265.HEVC.10bit.DTS.5.1-9.0 GB

[collapse]

You may also like...

error: nah :p~