Godzilla x Kong: The New Empire (2024)

PG-13 | 1h 55min | Action, Adventure, Fantasy

Two ancient titans, Godzilla and Kong, clash in an epic battle as humans unravel their intertwined origins and connection to Skull Island’s mysteries.

Watch trailer

Media information

General
Format : Matroska
Format version : Version 4
File size : 4.26 GiB
Duration : 1 h 55 min
Overall bit rate : 5 276 kb/s
Frame rate : 23.976 FPS
Movie name : Godzilla.x.Kong.The.New.Empire.2024.2160p.HDR10Plus.WEBRip.6CH.x265.HEVC

Video
ID : 1
Format : HEVC
Format/Info : High Efficiency Video Coding
Format profile : Main 10@L5@Main
HDR format : SMPTE ST 2094 App 4, Version 1, HDR10+ Profile B compatible
Codec ID : V_MPEGH/ISO/HEVC
Duration : 1 h 55 min
Bit rate : 5 068 kb/s
Width : 3 840 pixels
Height : 1 600 pixels
Display aspect ratio : 2.40:1
Frame rate mode : Constant
Frame rate : 23.976 (24000/1001) FPS
Color space : YUV
Chroma subsampling : 4:2:0 (Type 2)
Bit depth : 10 bits
Bits/(Pixel*Frame) : 0.034
Stream size : 4.09 GiB (96%)
Default : Yes
Forced : No
Color range : Limited
Color primaries : BT.2020
Transfer characteristics : PQ
Matrix coefficients : BT.2020 non-constant
Mastering display color primaries : Display P3
Mastering display luminance : min: 0.0001 cd/m2, max: 1000 cd/m2
Maximum Content Light Level : 968 cd/m2
Maximum Frame-Average Light Level : 457 cd/m2

Audio
ID : 2
Format : AAC LC SBR
Commercial name : HE-AAC
Format settings : Explicit
Codec ID : A_AAC-2
Duration : 1 h 55 min
Bit rate : 205 kb/s
Channel(s) : 6 channels
Channel layout : C L R Ls Rs LFE
Sampling rate : 48.0 kHz
Frame rate : 23.438 FPS (2048 SPF)
Compression mode : Lossy
Delay relative to video : 23 ms
Stream size : 169 MiB (4%)
Language : English
Default : Yes
Forced : No

Text #1
ID : 3
Format : UTF-8
Codec ID : S_TEXT/UTF8
Codec ID/Info : UTF-8 Plain Text
Duration : 1 h 54 min
Bit rate : 50 b/s
Frame rate : 0.241 FPS
Count of elements : 1656
Stream size : 42.6 KiB (0%)
Title : English (United States)
Language : English
Default : Yes
Forced : No

Text #2
ID : 4
Format : UTF-8
Codec ID : S_TEXT/UTF8
Codec ID/Info : UTF-8 Plain Text
Duration : 1 h 33 min
Bit rate : 1 b/s
Frame rate : 0.010 FPS
Count of elements : 56
Stream size : 1.28 KiB (0%)
Title : English forced
Language : English
Default : No
Forced : Yes

Text #3
ID : 5
Format : UTF-8
Codec ID : S_TEXT/UTF8
Codec ID/Info : UTF-8 Plain Text
Duration : 1 h 54 min
Bit rate : 50 b/s
Frame rate : 0.175 FPS
Count of elements : 1205
Stream size : 42.4 KiB (0%)
Title : German (Germany)
Language : German
Default : No
Forced : No

Text #4
ID : 6
Format : UTF-8
Codec ID : S_TEXT/UTF8
Codec ID/Info : UTF-8 Plain Text
Duration : 1 h 53 min
Bit rate : 32 b/s
Frame rate : 0.119 FPS
Count of elements : 808
Stream size : 27.2 KiB (0%)
Title : Spanish (Spain)
Language : Spanish
Default : No
Forced : No

Text #5
ID : 7
Format : UTF-8
Codec ID : S_TEXT/UTF8
Codec ID/Info : UTF-8 Plain Text
Duration : 1 h 53 min
Bit rate : 32 b/s
Frame rate : 0.114 FPS
Count of elements : 776
Stream size : 27.3 KiB (0%)
Title : Spanish (Latin America)
Language : Spanish
Default : No
Forced : No

Text #6
ID : 8
Format : UTF-8
Codec ID : S_TEXT/UTF8
Codec ID/Info : UTF-8 Plain Text
Duration : 1 h 53 min
Bit rate : 27 b/s
Frame rate : 0.120 FPS
Count of elements : 820
Stream size : 22.9 KiB (0%)
Title : French (France)
Language : French
Default : No
Forced : No

Text #7
ID : 9
Format : UTF-8
Codec ID : S_TEXT/UTF8
Codec ID/Info : UTF-8 Plain Text
Duration : 1 h 53 min
Bit rate : 35 b/s
Frame rate : 0.139 FPS
Count of elements : 948
Stream size : 29.5 KiB (0%)
Title : Italian (Italy)
Language : Italian
Default : No
Forced : No

Text #8
ID : 10
Format : UTF-8
Codec ID : S_TEXT/UTF8
Codec ID/Info : UTF-8 Plain Text
Duration : 1 h 53 min
Bit rate : 27 b/s
Frame rate : 0.091 FPS
Count of elements : 617
Stream size : 23.3 KiB (0%)
Title : Dutch (Netherlands)
Language : Dutch
Default : No
Forced : No

Text #9
ID : 11
Format : UTF-8
Codec ID : S_TEXT/UTF8
Codec ID/Info : UTF-8 Plain Text
Duration : 1 h 53 min
Bit rate : 28 b/s
Frame rate : 0.111 FPS
Count of elements : 755
Stream size : 23.3 KiB (0%)
Title : Polish (Poland)
Language : Polish
Default : No
Forced : No

Text #10
ID : 12
Format : UTF-8
Codec ID : S_TEXT/UTF8
Codec ID/Info : UTF-8 Plain Text
Duration : 1 h 53 min
Bit rate : 31 b/s
Frame rate : 0.114 FPS
Count of elements : 773
Stream size : 26.5 KiB (0%)
Title : Portuguese (Brazil)
Language : Portuguese
Default : No
Forced : No

Text #11
ID : 13
Format : UTF-8
Codec ID : S_TEXT/UTF8
Codec ID/Info : UTF-8 Plain Text
Duration : 1 h 53 min
Bit rate : 36 b/s
Frame rate : 0.114 FPS
Count of elements : 774
Stream size : 30.7 KiB (0%)
Title : Portuguese (Portugal)
Language : Portuguese
Default : No
Forced : No

Text #12
ID : 14
Format : UTF-8
Codec ID : S_TEXT/UTF8
Codec ID/Info : UTF-8 Plain Text
Duration : 1 h 53 min
Bit rate : 28 b/s
Frame rate : 0.133 FPS
Count of elements : 906
Stream size : 23.7 KiB (0%)
Title : Finnish (Finland)
Language : Finnish
Default : No
Forced : No

Text #13
ID : 15
Format : UTF-8
Codec ID : S_TEXT/UTF8
Codec ID/Info : UTF-8 Plain Text
Duration : 1 h 53 min
Bit rate : 27 b/s
Frame rate : 0.111 FPS
Count of elements : 759
Stream size : 23.1 KiB (0%)
Title : Swedish (Sweden)
Language : Swedish
Default : No
Forced : No

[collapse]
Download Link(s)

Download

Direct download files get automatically deleted after a month or so. Posted on : 05/14/2024

[collapse]
Magnet Link

Magnet

Godzilla.x.Kong.The.New.Empire.2024.2160p.WEB-DL.DDP5.1.HDR10+.H.265-POKE.TGx-16.48 GB

[collapse]

Media information

General
Format : Matroska
Format version : Version 4
File size : 2.12 GiB
Duration : 1 h 55 min
Overall bit rate : 2 623 kb/s
Frame rate : 23.976 FPS
Movie name : Godzilla.x.Kong.The.New.Empire.2024.1080p.10bit.WEBRip.6CH.x265.HEVC

Video
ID : 1
Format : HEVC
Format/Info : High Efficiency Video Coding
Format profile : Main 10@L4@Main
Codec ID : V_MPEGH/ISO/HEVC
Duration : 1 h 54 min
Bit rate : 2 434 kb/s
Width : 1 920 pixels
Height : 800 pixels
Display aspect ratio : 2.40:1
Frame rate mode : Constant
Frame rate : 23.976 (24000/1001) FPS
Color space : YUV
Chroma subsampling : 4:2:0
Bit depth : 10 bits
Bits/(Pixel*Frame) : 0.066
Stream size : 1.95 GiB (92%)
Default : Yes
Forced : No
Color range : Limited
Color primaries : BT.709
Transfer characteristics : BT.709
Matrix coefficients : BT.709

Audio
ID : 2
Format : AAC LC SBR
Commercial name : HE-AAC
Format settings : Explicit
Codec ID : A_AAC-2
Duration : 1 h 55 min
Bit rate : 205 kb/s
Channel(s) : 6 channels
Channel layout : C L R Ls Rs LFE
Sampling rate : 48.0 kHz
Frame rate : 23.438 FPS (2048 SPF)
Compression mode : Lossy
Delay relative to video : 37 ms
Stream size : 169 MiB (8%)
Language : English
Default : Yes
Forced : No

Text #1
ID : 3
Format : UTF-8
Codec ID : S_TEXT/UTF8
Codec ID/Info : UTF-8 Plain Text
Duration : 1 h 45 min
Bit rate : 38 b/s
Frame rate : 0.150 FPS
Count of elements : 952
Stream size : 29.9 KiB (0%)
Language : English (US)
Default : No
Forced : No

Text #2
ID : 4
Format : UTF-8
Codec ID : S_TEXT/UTF8
Codec ID/Info : UTF-8 Plain Text
Duration : 1 h 33 min
Bit rate : 1 b/s
Frame rate : 0.010 FPS
Count of elements : 56
Stream size : 1.28 KiB (0%)
Title : Forced
Language : English (US)
Default : No
Forced : Yes

Text #3
ID : 5
Format : UTF-8
Codec ID : S_TEXT/UTF8
Codec ID/Info : UTF-8 Plain Text
Duration : 1 h 54 min
Bit rate : 53 b/s
Frame rate : 0.241 FPS
Count of elements : 1654
Stream size : 44.4 KiB (0%)
Title : SDH
Language : English (US)
Default : Yes
Forced : No

Text #4
ID : 6
Format : UTF-8
Codec ID : S_TEXT/UTF8
Codec ID/Info : UTF-8 Plain Text
Duration : 1 h 53 min
Bit rate : 29 b/s
Frame rate : 0.120 FPS
Count of elements : 820
Stream size : 24.1 KiB (0%)
Language : French (FR)
Default : No
Forced : No

[collapse]
Download Link(s)

Download

Direct download files get automatically deleted after a month or so. Posted on : 05/13/2024

[collapse]

Media information

General
Format : Matroska
Format version : Version 4
File size : 1.02 GiB
Duration : 1 h 55 min
Overall bit rate : 1 268 kb/s
Frame rate : 23.976 FPS
Movie name : Godzilla.x.Kong.The.New.Empire.2024.720p.10bit.WEBRip.6CH.x265.HEVC

Video
ID : 1
Format : HEVC
Format/Info : High Efficiency Video Coding
Format profile : Main [email protected]@Main
Codec ID : V_MPEGH/ISO/HEVC
Duration : 1 h 54 min
Bit rate : 1 069 kb/s
Width : 1 280 pixels
Height : 536 pixels
Display aspect ratio : 2.39:1
Frame rate mode : Constant
Frame rate : 23.976 (24000/1001) FPS
Color space : YUV
Chroma subsampling : 4:2:0
Bit depth : 10 bits
Bits/(Pixel*Frame) : 0.065
Stream size : 876 MiB (84%)
Default : Yes
Forced : No
Color range : Limited
Color primaries : BT.709
Transfer characteristics : BT.709
Matrix coefficients : BT.709

Audio
ID : 2
Format : AAC LC SBR
Commercial name : HE-AAC
Format settings : Explicit
Codec ID : A_AAC-2
Duration : 1 h 55 min
Bit rate : 205 kb/s
Channel(s) : 6 channels
Channel layout : C L R Ls Rs LFE
Sampling rate : 48.0 kHz
Frame rate : 23.438 FPS (2048 SPF)
Compression mode : Lossy
Delay relative to video : 37 ms
Stream size : 169 MiB (16%)
Language : English
Default : Yes
Forced : No

Text #1
ID : 3
Format : UTF-8
Codec ID : S_TEXT/UTF8
Codec ID/Info : UTF-8 Plain Text
Duration : 1 h 45 min
Bit rate : 38 b/s
Frame rate : 0.150 FPS
Count of elements : 952
Stream size : 29.9 KiB (0%)
Language : English (US)
Default : No
Forced : No

Text #2
ID : 4
Format : UTF-8
Codec ID : S_TEXT/UTF8
Codec ID/Info : UTF-8 Plain Text
Duration : 1 h 33 min
Bit rate : 1 b/s
Frame rate : 0.010 FPS
Count of elements : 56
Stream size : 1.28 KiB (0%)
Title : Forced
Language : English (US)
Default : No
Forced : Yes

Text #3
ID : 5
Format : UTF-8
Codec ID : S_TEXT/UTF8
Codec ID/Info : UTF-8 Plain Text
Duration : 1 h 54 min
Bit rate : 53 b/s
Frame rate : 0.241 FPS
Count of elements : 1654
Stream size : 44.4 KiB (0%)
Title : SDH
Language : English (US)
Default : Yes
Forced : No

Text #4
ID : 6
Format : UTF-8
Codec ID : S_TEXT/UTF8
Codec ID/Info : UTF-8 Plain Text
Duration : 1 h 53 min
Bit rate : 29 b/s
Frame rate : 0.120 FPS
Count of elements : 820
Stream size : 24.1 KiB (0%)
Language : French (FR)
Default : No
Forced : No

[collapse]
Download Link(s)

Download

Direct download files get automatically deleted after a month or so. Posted on : 05/13/2024

[collapse]

Magnet Link

Magnet

Godzilla.x.Kong.The.New.Empire.2024.REPACK.1080p.10bit.WEBRip.6CH.x265.HEVC-PSA-2.11 GB

[collapse]

You may also like...

error: nah :p~