Ghostbusters: Frozen Empire (2024)

PG-13 | 1h 55min | Adventure, Comedy, Fantasy

When the discovery of an ancient artifact unleashes an evil force, Ghostbusters new and old must join forces to protect their home and save the world from a second ice age.

Watch trailer

Media information

General
Format : Matroska
Format version : Version 4
File size : 2.35 GiB
Duration : 1 h 56 min
Overall bit rate : 2 885 kb/s
Frame rate : 23.976 FPS
Movie name : Ghostbusters.Frozen.Empire.2024.2160p.HDR10Plus.DV.WEBRip.6CH.x265.HEVC

Video
ID : 1
Format : HEVC
Format/Info : High Efficiency Video Coding
Format profile : Main 10@L5@Main
HDR format : Dolby Vision, Version 1.0, Profile 8.1, dvhe.08.06, BL+RPU, no metadata compression, HDR10 compatible / SMPTE ST 2094 App 4, Version HDR10+ Profile B, HDR10+ Profile B compatible
Codec ID : V_MPEGH/ISO/HEVC
Duration : 1 h 55 min
Bit rate : 2 718 kb/s
Width : 3 840 pixels
Height : 1 604 pixels
Display aspect ratio : 2.39:1
Frame rate mode : Constant
Frame rate : 23.976 (24000/1001) FPS
Color space : YUV
Chroma subsampling : 4:2:0 (Type 2)
Bit depth : 10 bits
Bits/(Pixel*Frame) : 0.018
Stream size : 2.18 GiB (93%)
Default : Yes
Forced : No
Color range : Limited
Color primaries : BT.2020
Transfer characteristics : PQ
Matrix coefficients : BT.2020 non-constant
Mastering display color primaries : BT.2020
Mastering display luminance : min: 0.0050 cd/m2, max: 1000 cd/m2
Maximum Content Light Level : 649 cd/m2
Maximum Frame-Average Light Level : 181 cd/m2

Audio
ID : 2
Format : AAC LC SBR
Commercial name : HE-AAC
Format settings : Explicit
Codec ID : A_AAC-2
Duration : 1 h 56 min
Bit rate : 201 kb/s
Channel(s) : 6 channels
Channel layout : C L R Ls Rs LFE
Sampling rate : 48.0 kHz
Frame rate : 23.438 FPS (2048 SPF)
Compression mode : Lossy
Delay relative to video : 23 ms
Stream size : 168 MiB (7%)
Language : English
Default : Yes
Forced : No

Text #1
ID : 3
Format : UTF-8
Codec ID : S_TEXT/UTF8
Codec ID/Info : UTF-8 Plain Text
Duration : 1 h 47 min
Bit rate : 51 b/s
Frame rate : 0.200 FPS
Count of elements : 1291
Stream size : 40.7 KiB (0%)
Language : English (US)
Default : No
Forced : No

Text #2
ID : 4
Format : UTF-8
Codec ID : S_TEXT/UTF8
Codec ID/Info : UTF-8 Plain Text
Duration : 1 h 54 min
Bit rate : 66 b/s
Frame rate : 0.296 FPS
Count of elements : 2030
Stream size : 55.5 KiB (0%)
Title : SDH
Language : English (US)
Default : Yes
Forced : No

Text #3
ID : 5
Format : UTF-8
Codec ID : S_TEXT/UTF8
Codec ID/Info : UTF-8 Plain Text
Duration : 1 h 53 min
Bit rate : 71 b/s
Frame rate : 0.191 FPS
Count of elements : 1307
Stream size : 59.7 KiB (0%)
Language : Bulgarian
Default : No
Forced : No

Text #4
ID : 6
Format : UTF-8
Codec ID : S_TEXT/UTF8
Codec ID/Info : UTF-8 Plain Text
Duration : 1 h 53 min
Bit rate : 43 b/s
Frame rate : 0.194 FPS
Count of elements : 1323
Stream size : 36.4 KiB (0%)
Title : Simplified
Language : Chinese (Simplified)
Default : No
Forced : No

Text #5
ID : 7
Format : UTF-8
Codec ID : S_TEXT/UTF8
Codec ID/Info : UTF-8 Plain Text
Duration : 1 h 53 min
Bit rate : 35 b/s
Frame rate : 0.193 FPS
Count of elements : 1321
Stream size : 29.8 KiB (0%)
Title : Traditional
Language : Chinese (Traditional)
Default : No
Forced : No

Text #6
ID : 8
Format : UTF-8
Codec ID : S_TEXT/UTF8
Codec ID/Info : UTF-8 Plain Text
Duration : 1 h 53 min
Bit rate : 43 b/s
Frame rate : 0.132 FPS
Count of elements : 902
Stream size : 35.9 KiB (0%)
Language : Danish
Default : No
Forced : No

Text #7
ID : 9
Format : UTF-8
Codec ID : S_TEXT/UTF8
Codec ID/Info : UTF-8 Plain Text
Duration : 1 h 53 min
Bit rate : 50 b/s
Frame rate : 0.185 FPS
Count of elements : 1265
Stream size : 42.2 KiB (0%)
Language : German (DE)
Default : No
Forced : No

Text #8
ID : 10
Format : UTF-8
Codec ID : S_TEXT/UTF8
Codec ID/Info : UTF-8 Plain Text
Duration : 1 h 53 min
Bit rate : 48 b/s
Frame rate : 0.190 FPS
Count of elements : 1298
Stream size : 40.2 KiB (0%)
Title : Latin American
Language : Spanish (Latin America)
Default : No
Forced : No

Text #9
ID : 11
Format : UTF-8
Codec ID : S_TEXT/UTF8
Codec ID/Info : UTF-8 Plain Text
Duration : 1 h 53 min
Bit rate : 45 b/s
Frame rate : 0.189 FPS
Count of elements : 1289
Stream size : 38.2 KiB (0%)
Language : Spanish (ES)
Default : No
Forced : No

Text #10
ID : 12
Format : UTF-8
Codec ID : S_TEXT/UTF8
Codec ID/Info : UTF-8 Plain Text
Duration : 1 h 53 min
Bit rate : 43 b/s
Frame rate : 0.198 FPS
Count of elements : 1356
Stream size : 36.4 KiB (0%)
Language : Finnish
Default : No
Forced : No

Text #11
ID : 13
Format : UTF-8
Codec ID : S_TEXT/UTF8
Codec ID/Info : UTF-8 Plain Text
Duration : 1 h 53 min
Bit rate : 42 b/s
Frame rate : 0.183 FPS
Count of elements : 1253
Stream size : 35.2 KiB (0%)
Language : French (FR)
Default : No
Forced : No

Text #12
ID : 14
Format : UTF-8
Codec ID : S_TEXT/UTF8
Codec ID/Info : UTF-8 Plain Text
Duration : 1 h 53 min
Bit rate : 44 b/s
Frame rate : 0.191 FPS
Count of elements : 1305
Stream size : 37.3 KiB (0%)
Language : Indonesian
Default : No
Forced : No

Text #13
ID : 15
Format : UTF-8
Codec ID : S_TEXT/UTF8
Codec ID/Info : UTF-8 Plain Text
Duration : 1 h 53 min
Bit rate : 44 b/s
Frame rate : 0.177 FPS
Count of elements : 1211
Stream size : 37.5 KiB (0%)
Language : Italian (IT)
Default : No
Forced : No

Text #14
ID : 16
Format : UTF-8
Codec ID : S_TEXT/UTF8
Codec ID/Info : UTF-8 Plain Text
Duration : 1 h 54 min
Bit rate : 37 b/s
Frame rate : 0.181 FPS
Count of elements : 1239
Stream size : 31.6 KiB (0%)
Language : Japanese (JP)
Default : No
Forced : No

Text #15
ID : 17
Format : UTF-8
Codec ID : S_TEXT/UTF8
Codec ID/Info : UTF-8 Plain Text
Duration : 1 h 53 min
Bit rate : 46 b/s
Frame rate : 0.192 FPS
Count of elements : 1311
Stream size : 38.4 KiB (0%)
Language : Korean
Default : No
Forced : No

Text #16
ID : 18
Format : UTF-8
Codec ID : S_TEXT/UTF8
Codec ID/Info : UTF-8 Plain Text
Duration : 1 h 53 min
Bit rate : 44 b/s
Frame rate : 0.192 FPS
Count of elements : 1315
Stream size : 36.8 KiB (0%)
Language : Lithuanian
Default : No
Forced : No

Text #17
ID : 19
Format : UTF-8
Codec ID : S_TEXT/UTF8
Codec ID/Info : UTF-8 Plain Text
Duration : 1 h 53 min
Bit rate : 45 b/s
Frame rate : 0.199 FPS
Count of elements : 1358
Stream size : 38.1 KiB (0%)
Language : Latvian
Default : No
Forced : No

Text #18
ID : 20
Format : UTF-8
Codec ID : S_TEXT/UTF8
Codec ID/Info : UTF-8 Plain Text
Duration : 1 h 53 min
Bit rate : 42 b/s
Frame rate : 0.135 FPS
Count of elements : 922
Stream size : 35.6 KiB (0%)
Language : Dutch
Default : No
Forced : No

Text #19
ID : 21
Format : UTF-8
Codec ID : S_TEXT/UTF8
Codec ID/Info : UTF-8 Plain Text
Duration : 1 h 53 min
Bit rate : 41 b/s
Frame rate : 0.142 FPS
Count of elements : 969
Stream size : 34.3 KiB (0%)
Language : Norwegian
Default : No
Forced : No

Text #20
ID : 22
Format : UTF-8
Codec ID : S_TEXT/UTF8
Codec ID/Info : UTF-8 Plain Text
Duration : 1 h 53 min
Bit rate : 44 b/s
Frame rate : 0.182 FPS
Count of elements : 1241
Stream size : 37.5 KiB (0%)
Language : Polish
Default : No
Forced : No

Text #21
ID : 23
Format : UTF-8
Codec ID : S_TEXT/UTF8
Codec ID/Info : UTF-8 Plain Text
Duration : 1 h 53 min
Bit rate : 48 b/s
Frame rate : 0.190 FPS
Count of elements : 1296
Stream size : 40.7 KiB (0%)
Title : Brazilian
Language : Portuguese (BR)
Default : No
Forced : No

Text #22
ID : 24
Format : UTF-8
Codec ID : S_TEXT/UTF8
Codec ID/Info : UTF-8 Plain Text
Duration : 1 h 53 min
Bit rate : 46 b/s
Frame rate : 0.187 FPS
Count of elements : 1281
Stream size : 39.0 KiB (0%)
Language : Portuguese (PT)
Default : No
Forced : No

Text #23
ID : 25
Format : UTF-8
Codec ID : S_TEXT/UTF8
Codec ID/Info : UTF-8 Plain Text
Duration : 1 h 53 min
Bit rate : 42 b/s
Frame rate : 0.191 FPS
Count of elements : 1303
Stream size : 35.6 KiB (0%)
Language : Slovak
Default : No
Forced : No

Text #24
ID : 26
Format : UTF-8
Codec ID : S_TEXT/UTF8
Codec ID/Info : UTF-8 Plain Text
Duration : 1 h 53 min
Bit rate : 39 b/s
Frame rate : 0.171 FPS
Count of elements : 1167
Stream size : 32.6 KiB (0%)
Language : Slovenian
Default : No
Forced : No

Text #25
ID : 27
Format : UTF-8
Codec ID : S_TEXT/UTF8
Codec ID/Info : UTF-8 Plain Text
Duration : 1 h 53 min
Bit rate : 45 b/s
Frame rate : 0.146 FPS
Count of elements : 995
Stream size : 37.7 KiB (0%)
Language : Swedish
Default : No
Forced : No

Text #26
ID : 28
Format : UTF-8
Codec ID : S_TEXT/UTF8
Codec ID/Info : UTF-8 Plain Text
Duration : 1 h 53 min
Bit rate : 96 b/s
Frame rate : 0.194 FPS
Count of elements : 1326
Stream size : 80.2 KiB (0%)
Language : Thai
Default : No
Forced : No

Text #27
ID : 29
Format : UTF-8
Codec ID : S_TEXT/UTF8
Codec ID/Info : UTF-8 Plain Text
Duration : 1 h 53 min
Bit rate : 71 b/s
Frame rate : 0.193 FPS
Count of elements : 1319
Stream size : 60.0 KiB (0%)
Language : Vietnamese
Default : No
Forced : No

Text #28
ID : 30
Format : UTF-8
Codec ID : S_TEXT/UTF8
Codec ID/Info : UTF-8 Plain Text
Duration : 1 h 53 min
Bit rate : 38 b/s
Frame rate : 0.194 FPS
Count of elements : 1323
Stream size : 32.5 KiB (0%)
Title : Traditional
Language : Cantonese (Hant)
Default : No
Forced : No

[collapse]
Download Link(s)

Download

Direct download files get automatically deleted after a month or so. Posted on : 05/07/2024

[collapse]
Magnet Link

Magnet

Ghostbusters.Frozen.Empire.2024.2160p.WEB-DL.DDP5.1.DV.HDR.H.265-FLUX-19.94 GB

[collapse]

Media information

General
Format : Matroska
Format version : Version 4
File size : 1.61 GiB
Duration : 1 h 56 min
Overall bit rate : 1 975 kb/s
Frame rate : 23.976 FPS
Movie name : Ghostbusters.Frozen.Empire.2024.1080p.10bit.WEBRip.6CH.x265.HEVC

Video
ID : 1
Format : HEVC
Format/Info : High Efficiency Video Coding
Format profile : Main 10@L4@Main
Codec ID : V_MPEGH/ISO/HEVC
Duration : 1 h 56 min
Bit rate : 1 771 kb/s
Width : 1 920 pixels
Height : 800 pixels
Display aspect ratio : 2.40:1
Frame rate mode : Constant
Frame rate : 23.976 (24000/1001) FPS
Color space : YUV
Chroma subsampling : 4:2:0
Bit depth : 10 bits
Bits/(Pixel*Frame) : 0.048
Stream size : 1.44 GiB (90%)
Default : Yes
Forced : No
Color range : Limited
Color primaries : BT.709
Transfer characteristics : BT.709
Matrix coefficients : BT.709

Audio
ID : 2
Format : AAC LC SBR
Commercial name : HE-AAC
Format settings : Explicit
Codec ID : A_AAC-2
Duration : 1 h 56 min
Bit rate : 201 kb/s
Channel(s) : 6 channels
Channel layout : C L R Ls Rs LFE
Sampling rate : 48.0 kHz
Frame rate : 23.438 FPS (2048 SPF)
Compression mode : Lossy
Delay relative to video : 23 ms
Stream size : 168 MiB (10%)
Language : English
Default : Yes
Forced : No

Text #1
ID : 3
Format : UTF-8
Codec ID : S_TEXT/UTF8
Codec ID/Info : UTF-8 Plain Text
Duration : 1 h 47 min
Bit rate : 55 b/s
Frame rate : 0.236 FPS
Count of elements : 1523
Stream size : 43.7 KiB (0%)
Language : English (US)
Default : No
Forced : No

Text #2
ID : 4
Format : UTF-8
Codec ID : S_TEXT/UTF8
Codec ID/Info : UTF-8 Plain Text
Duration : 1 h 54 min
Bit rate : 66 b/s
Frame rate : 0.296 FPS
Count of elements : 2030
Stream size : 55.5 KiB (0%)
Title : SDH
Language : English (US)
Default : Yes
Forced : No

Text #3
ID : 5
Format : UTF-8
Codec ID : S_TEXT/UTF8
Codec ID/Info : UTF-8 Plain Text
Duration : 1 h 53 min
Bit rate : 50 b/s
Frame rate : 0.185 FPS
Count of elements : 1265
Stream size : 42.2 KiB (0%)
Language : German (DE)
Default : No
Forced : No

Text #4
ID : 6
Format : UTF-8
Codec ID : S_TEXT/UTF8
Codec ID/Info : UTF-8 Plain Text
Duration : 1 h 53 min
Bit rate : 48 b/s
Frame rate : 0.190 FPS
Count of elements : 1298
Stream size : 40.2 KiB (0%)
Title : Latin American
Language : Spanish (Latin America)
Default : No
Forced : No

Text #5
ID : 7
Format : UTF-8
Codec ID : S_TEXT/UTF8
Codec ID/Info : UTF-8 Plain Text
Duration : 1 h 53 min
Bit rate : 42 b/s
Frame rate : 0.183 FPS
Count of elements : 1253
Stream size : 35.2 KiB (0%)
Language : French (FR)
Default : No
Forced : No

Text #6
ID : 8
Format : UTF-8
Codec ID : S_TEXT/UTF8
Codec ID/Info : UTF-8 Plain Text
Duration : 1 h 53 min
Bit rate : 44 b/s
Frame rate : 0.177 FPS
Count of elements : 1210
Stream size : 37.5 KiB (0%)
Language : Italian (IT)
Default : No
Forced : No

Text #7
ID : 9
Format : UTF-8
Codec ID : S_TEXT/UTF8
Codec ID/Info : UTF-8 Plain Text
Duration : 1 h 54 min
Bit rate : 38 b/s
Frame rate : 0.181 FPS
Count of elements : 1240
Stream size : 32.1 KiB (0%)
Language : Japanese (JP)
Default : No
Forced : No

Text #8
ID : 10
Format : UTF-8
Codec ID : S_TEXT/UTF8
Codec ID/Info : UTF-8 Plain Text
Duration : 1 h 53 min
Bit rate : 42 b/s
Frame rate : 0.135 FPS
Count of elements : 922
Stream size : 35.6 KiB (0%)
Language : Dutch (NL)
Default : No
Forced : No

Text #9
ID : 11
Format : UTF-8
Codec ID : S_TEXT/UTF8
Codec ID/Info : UTF-8 Plain Text
Duration : 1 h 53 min
Bit rate : 44 b/s
Frame rate : 0.182 FPS
Count of elements : 1241
Stream size : 37.5 KiB (0%)
Language : Polish (PL)
Default : No
Forced : No

Text #10
ID : 12
Format : UTF-8
Codec ID : S_TEXT/UTF8
Codec ID/Info : UTF-8 Plain Text
Duration : 1 h 53 min
Bit rate : 48 b/s
Frame rate : 0.190 FPS
Count of elements : 1296
Stream size : 40.7 KiB (0%)
Title : Brazilian
Language : Portuguese (BR)
Default : No
Forced : No

Text #11
ID : 13
Format : UTF-8
Codec ID : S_TEXT/UTF8
Codec ID/Info : UTF-8 Plain Text
Duration : 1 h 53 min
Bit rate : 45 b/s
Frame rate : 0.146 FPS
Count of elements : 995
Stream size : 37.7 KiB (0%)
Language : Swedish (SE)
Default : No
Forced : No

[collapse]
Download Link(s)

Download

Direct download files get automatically deleted after a month or so. Posted on : 05/07/2024

[collapse]
Magnet Link

Magnet

Ghostbusters.Frozen.Empire.2024.1080p.AMZN.WEB-DL.DDP5.1.H.264-FLUX-5.82 GB

[collapse]

Media information

General
Format : Matroska
Format version : Version 4
File size : 864 MiB
Duration : 1 h 56 min
Overall bit rate : 1 035 kb/s
Frame rate : 23.976 FPS
Movie name : Ghostbusters.Frozen.Empire.2024.720p.10bit.WEBRip.6CH.x265.HEVC

Video
ID : 1
Format : HEVC
Format/Info : High Efficiency Video Coding
Format profile : Main [email protected]@Main
Codec ID : V_MPEGH/ISO/HEVC
Duration : 1 h 56 min
Bit rate : 831 kb/s
Width : 1 280 pixels
Height : 536 pixels
Display aspect ratio : 2.39:1
Frame rate mode : Constant
Frame rate : 23.976 (24000/1001) FPS
Color space : YUV
Chroma subsampling : 4:2:0
Bit depth : 10 bits
Bits/(Pixel*Frame) : 0.051
Stream size : 694 MiB (80%)
Default : Yes
Forced : No
Color range : Limited
Color primaries : BT.709
Transfer characteristics : BT.709
Matrix coefficients : BT.709

Audio
ID : 2
Format : AAC LC SBR
Commercial name : HE-AAC
Format settings : Explicit
Codec ID : A_AAC-2
Duration : 1 h 56 min
Bit rate : 201 kb/s
Channel(s) : 6 channels
Channel layout : C L R Ls Rs LFE
Sampling rate : 48.0 kHz
Frame rate : 23.438 FPS (2048 SPF)
Compression mode : Lossy
Delay relative to video : 23 ms
Stream size : 168 MiB (19%)
Language : English
Default : Yes
Forced : No

Text #1
ID : 3
Format : UTF-8
Codec ID : S_TEXT/UTF8
Codec ID/Info : UTF-8 Plain Text
Duration : 1 h 47 min
Bit rate : 55 b/s
Frame rate : 0.236 FPS
Count of elements : 1523
Stream size : 43.7 KiB (0%)
Language : English (US)
Default : No
Forced : No

Text #2
ID : 4
Format : UTF-8
Codec ID : S_TEXT/UTF8
Codec ID/Info : UTF-8 Plain Text
Duration : 1 h 54 min
Bit rate : 66 b/s
Frame rate : 0.296 FPS
Count of elements : 2030
Stream size : 55.5 KiB (0%)
Title : SDH
Language : English (US)
Default : Yes
Forced : No

Text #3
ID : 5
Format : UTF-8
Codec ID : S_TEXT/UTF8
Codec ID/Info : UTF-8 Plain Text
Duration : 1 h 53 min
Bit rate : 50 b/s
Frame rate : 0.185 FPS
Count of elements : 1265
Stream size : 42.2 KiB (0%)
Language : German (DE)
Default : No
Forced : No

Text #4
ID : 6
Format : UTF-8
Codec ID : S_TEXT/UTF8
Codec ID/Info : UTF-8 Plain Text
Duration : 1 h 53 min
Bit rate : 48 b/s
Frame rate : 0.190 FPS
Count of elements : 1298
Stream size : 40.2 KiB (0%)
Title : Latin American
Language : Spanish (Latin America)
Default : No
Forced : No

Text #5
ID : 7
Format : UTF-8
Codec ID : S_TEXT/UTF8
Codec ID/Info : UTF-8 Plain Text
Duration : 1 h 53 min
Bit rate : 42 b/s
Frame rate : 0.183 FPS
Count of elements : 1253
Stream size : 35.2 KiB (0%)
Language : French (FR)
Default : No
Forced : No

Text #6
ID : 8
Format : UTF-8
Codec ID : S_TEXT/UTF8
Codec ID/Info : UTF-8 Plain Text
Duration : 1 h 53 min
Bit rate : 44 b/s
Frame rate : 0.177 FPS
Count of elements : 1210
Stream size : 37.5 KiB (0%)
Language : Italian (IT)
Default : No
Forced : No

Text #7
ID : 9
Format : UTF-8
Codec ID : S_TEXT/UTF8
Codec ID/Info : UTF-8 Plain Text
Duration : 1 h 54 min
Bit rate : 38 b/s
Frame rate : 0.181 FPS
Count of elements : 1240
Stream size : 32.1 KiB (0%)
Language : Japanese (JP)
Default : No
Forced : No

Text #8
ID : 10
Format : UTF-8
Codec ID : S_TEXT/UTF8
Codec ID/Info : UTF-8 Plain Text
Duration : 1 h 53 min
Bit rate : 42 b/s
Frame rate : 0.135 FPS
Count of elements : 922
Stream size : 35.6 KiB (0%)
Language : Dutch (NL)
Default : No
Forced : No

Text #9
ID : 11
Format : UTF-8
Codec ID : S_TEXT/UTF8
Codec ID/Info : UTF-8 Plain Text
Duration : 1 h 53 min
Bit rate : 44 b/s
Frame rate : 0.182 FPS
Count of elements : 1241
Stream size : 37.5 KiB (0%)
Language : Polish (PL)
Default : No
Forced : No

Text #10
ID : 12
Format : UTF-8
Codec ID : S_TEXT/UTF8
Codec ID/Info : UTF-8 Plain Text
Duration : 1 h 53 min
Bit rate : 48 b/s
Frame rate : 0.190 FPS
Count of elements : 1296
Stream size : 40.7 KiB (0%)
Title : Brazilian
Language : Portuguese (BR)
Default : No
Forced : No

Text #11
ID : 13
Format : UTF-8
Codec ID : S_TEXT/UTF8
Codec ID/Info : UTF-8 Plain Text
Duration : 1 h 53 min
Bit rate : 45 b/s
Frame rate : 0.146 FPS
Count of elements : 995
Stream size : 37.7 KiB (0%)
Language : Swedish (SE)
Default : No
Forced : No

[collapse]
Download Link(s)

Download

Direct download files get automatically deleted after a month or so. Posted on : 05/07/2024

[collapse]
Magnet Link

Magnet

Ghostbusters.Frozen.Empire.2024.1080p.AMZN.WEB-DL.DDP5.1.H.264-FLUX-5.82 GB

[collapse]

You may also like...

error: nah :p~