Galaxy Quest (1999)

PG | 1h 42min | Adventure, Comedy, Sci-Fi | 25 December 1999 (USA)

The alumni cast of a space opera television series have to play their roles as the real thing when an alien race needs their help. However, they also have to defend both Earth and the alien race from a reptilian warlord

Watch trailer

Media information

General
Format : Matroska
Format version : Version 4
File size : 1.46 GiB
Duration : 1 h 42 min
Overall bit rate : 2 045 kb/s
Movie name : Galaxy.Quest.1999.1080p.10bit.BluRay.6CH.x265.HEVC

Video
ID : 1
Format : HEVC
Format/Info : High Efficiency Video Coding
Format profile : Main 10@L4@Main
Codec ID : V_MPEGH/ISO/HEVC
Duration : 1 h 42 min
Bit rate : 1 736 kb/s
Width : 1 920 pixels
Height : 816 pixels
Display aspect ratio : 2.35:1
Frame rate mode : Constant
Frame rate : 23.976 (24000/1001) FPS
Color space : YUV
Chroma subsampling : 4:2:0
Bit depth : 10 bits
Bits/(Pixel*Frame) : 0.046
Stream size : 1.24 GiB (85%)
Default : Yes
Forced : No
Color range : Limited
Color primaries : BT.709
Transfer characteristics : BT.709
Matrix coefficients : BT.709

Audio
ID : 2
Format : AAC LC
Codec ID : A_AAC-2
Duration : 1 h 42 min
Bit rate : 224 kb/s
Channel(s) : 6 channels
Channel layout : C L R Ls Rs LFE
Sampling rate : 48.0 kHz
Frame rate : 46.875 FPS (1024 SPF)
Compression mode : Lossy
Delay relative to video : -121 ms
Stream size : 164 MiB (11%)
Language : English
Default : Yes
Forced : No

Text #1
ID : 3
Format : UTF-8
Codec ID : S_TEXT/UTF8
Codec ID/Info : UTF-8 Plain Text
Duration : 1 h 41 min
Bit rate : 71 b/s
Count of elements : 1343
Stream size : 53.1 KiB (0%)
Language : English
Default : Yes
Forced : No

Text #2
ID : 4
Format : PGS
Muxing mode : zlib
Codec ID : S_HDMV/PGS
Duration : 1 h 35 min
Bit rate : 40.5 kb/s
Count of elements : 2418
Stream size : 27.8 MiB (2%)
Language : German
Default : No
Forced : No

Text #3
ID : 5
Format : PGS
Muxing mode : zlib
Codec ID : S_HDMV/PGS
Duration : 1 h 41 min
Bit rate : 40.4 kb/s
Count of elements : 2572
Stream size : 29.2 MiB (2%)
Language : English
Default : No
Forced : Yes

Text #4
ID : 6
Format : PGS
Muxing mode : zlib
Codec ID : S_HDMV/PGS
Duration : 1 h 41 min
Bit rate : 44.7 kb/s
Count of elements : 2892
Stream size : 32.4 MiB (2%)
Language : English
Default : No
Forced : No

[collapse]
Download Link(s)

Download

Direct download files get automatically deleted after a month or so. Posted on : 01/31/2021

[collapse]
Magnet Link

Magnet

Galaxy.Quest.1999.1080p.BluRay.x264.DTS-FGT-10.59 GB

[collapse]

Media information

General
Format : Matroska
Format version : Version 4
File size : 749 MiB
Duration : 1 h 42 min
Overall bit rate : 1 025 kb/s
Movie name : Galaxy.Quest.1999.720p.10bit.BluRay.6CH.x265.HEVC

Video
ID : 1
Format : HEVC
Format/Info : High Efficiency Video Coding
Format profile : Main [email protected]@Main
Codec ID : V_MPEGH/ISO/HEVC
Duration : 1 h 42 min
Bit rate : 749 kb/s
Width : 1 280 pixels
Height : 544 pixels
Display aspect ratio : 2.35:1
Frame rate mode : Constant
Frame rate : 23.976 (24000/1001) FPS
Color space : YUV
Chroma subsampling : 4:2:0
Bit depth : 10 bits
Bits/(Pixel*Frame) : 0.045
Stream size : 547 MiB (73%)
Default : Yes
Forced : No
Color range : Limited
Color primaries : BT.709
Transfer characteristics : BT.709
Matrix coefficients : BT.709

Audio
ID : 2
Format : AAC LC
Codec ID : A_AAC-2
Duration : 1 h 42 min
Bit rate : 192 kb/s
Channel(s) : 6 channels
Channel layout : C L R Ls Rs LFE
Sampling rate : 48.0 kHz
Frame rate : 46.875 FPS (1024 SPF)
Compression mode : Lossy
Delay relative to video : -121 ms
Stream size : 140 MiB (19%)
Language : English
Default : Yes
Forced : No

Text #1
ID : 3
Format : UTF-8
Codec ID : S_TEXT/UTF8
Codec ID/Info : UTF-8 Plain Text
Duration : 1 h 41 min
Bit rate : 71 b/s
Count of elements : 1343
Stream size : 53.1 KiB (0%)
Language : English
Default : Yes
Forced : No

Text #2
ID : 4
Format : PGS
Muxing mode : zlib
Codec ID : S_HDMV/PGS
Duration : 1 h 35 min
Bit rate : 40.5 kb/s
Count of elements : 2418
Stream size : 27.8 MiB (4%)
Language : German
Default : No
Forced : No

Text #3
ID : 5
Format : PGS
Muxing mode : zlib
Codec ID : S_HDMV/PGS
Duration : 1 h 41 min
Bit rate : 40.4 kb/s
Count of elements : 2572
Stream size : 29.2 MiB (4%)
Language : English
Default : No
Forced : Yes

Text #4
ID : 6
Format : PGS
Muxing mode : zlib
Codec ID : S_HDMV/PGS
Duration : 1 h 41 min
Bit rate : 44.7 kb/s
Count of elements : 2892
Stream size : 32.4 MiB (4%)
Language : English
Default : No
Forced : No

[collapse]
Download Link(s)

Download

Direct download files get automatically deleted after a month or so. Posted on : 01/31/2021

[collapse]
Magnet Link

Magnet

Galaxy.Quest.1999.1080p.BluRay.x264.DTS-FGT-10.59 GB

[collapse]

You may also like...

error: nah :p~