Full Metal Jacket (1987)

R | 1h 56min | Drama, War | 10 July 1987 (USA)

A pragmatic U.S. Marine observes the dehumanizing effects the Vietnam War has on his fellow recruits from their brutal boot camp training to the bloody street fighting in Hue.

Watch trailer

Media information

General
Format : Matroska
Format version : Version 4
File size : 2.38 GiB
Duration : 1 h 56 min
Overall bit rate : 2 919 kb/s
Movie name : Full.Metal.Jacket.1987.1080p.10bit.BluRay.6CH.x265.HEVC

Video
ID : 1
Format : HEVC
Format/Info : High Efficiency Video Coding
Format profile : Main [email protected]@Main
Codec ID : V_MPEGH/ISO/HEVC
Duration : 1 h 56 min
Bit rate : 2 168 kb/s
Width : 1 920 pixels
Height : 1 080 pixels
Display aspect ratio : 16:9
Frame rate mode : Constant
Frame rate : 23.976 (24000/1001) FPS
Color space : YUV
Chroma subsampling : 4:2:0 (Type 0)
Bit depth : 10 bits
Bits/(Pixel*Frame) : 0.044
Stream size : 1.76 GiB (74%)
Default : Yes
Forced : No
Color range : Limited

Audio
ID : 2
Format : AAC LC
Codec ID : A_AAC-2
Duration : 1 h 56 min
Bit rate : 384 kb/s
Channel(s) : 6 channels
Channel layout : L R C Cb Lb Rb
Sampling rate : 48.0 kHz
Frame rate : 46.875 FPS (1024 SPF)
Compression mode : Lossy
Delay relative to video : -21 ms
Stream size : 321 MiB (13%)
Language : English
Default : Yes
Forced : No

Text #1
ID : 3
Format : UTF-8
Codec ID : S_TEXT/UTF8
Codec ID/Info : UTF-8 Plain Text
Duration : 1 h 50 min
Bit rate : 57 b/s
Count of elements : 1357
Stream size : 46.3 KiB (0%)
Language : English
Default : Yes
Forced : No

Text #2
ID : 4
Format : PGS
Muxing mode : zlib
Codec ID : S_HDMV/PGS
Duration : 1 h 54 min
Bit rate : 30.0 kb/s
Count of elements : 2732
Stream size : 24.6 MiB (2%)
Language : English
Default : No
Forced : No

Text #3
ID : 5
Format : PGS
Muxing mode : zlib
Codec ID : S_HDMV/PGS
Duration : 1 h 55 min
Bit rate : 36.5 kb/s
Count of elements : 3126
Stream size : 30.2 MiB (2%)
Language : English
Default : No
Forced : No

Text #4
ID : 6
Format : PGS
Muxing mode : zlib
Codec ID : S_HDMV/PGS
Duration : 1 h 52 min
Bit rate : 17.8 kb/s
Count of elements : 2374
Stream size : 14.3 MiB (1%)
Language : Arabic
Default : No
Forced : No

Text #5
ID : 7
Format : PGS
Muxing mode : zlib
Codec ID : S_HDMV/PGS
Duration : 1 h 52 min
Bit rate : 26.3 kb/s
Count of elements : 2912
Stream size : 21.1 MiB (1%)
Language : Chinese
Default : No
Forced : No

Text #6
ID : 8
Format : PGS
Muxing mode : zlib
Codec ID : S_HDMV/PGS
Duration : 1 h 56 min
Bit rate : 29.2 kb/s
Count of elements : 2978
Stream size : 24.2 MiB (2%)
Language : Chinese
Default : No
Forced : No

Text #7
ID : 9
Format : PGS
Muxing mode : zlib
Codec ID : S_HDMV/PGS
Duration : 1 h 54 min
Bit rate : 22.0 kb/s
Count of elements : 2322
Stream size : 18.1 MiB (1%)
Language : Croatian
Default : No
Forced : No

Text #8
ID : 10
Format : PGS
Muxing mode : zlib
Codec ID : S_HDMV/PGS
Duration : 1 h 52 min
Bit rate : 27.0 kb/s
Count of elements : 2810
Stream size : 21.7 MiB (1%)
Language : Czech
Default : No
Forced : No

Text #9
ID : 11
Format : PGS
Muxing mode : zlib
Codec ID : S_HDMV/PGS
Duration : 1 h 56 min
Bit rate : 24.8 kb/s
Count of elements : 2310
Stream size : 20.6 MiB (1%)
Language : Danish
Default : No
Forced : No

Text #10
ID : 12
Format : PGS
Muxing mode : zlib
Codec ID : S_HDMV/PGS
Duration : 1 h 50 min
Bit rate : 26.3 kb/s
Count of elements : 2378
Stream size : 20.9 MiB (1%)
Language : Dutch
Default : No
Forced : No

Text #11
ID : 13
Format : PGS
Muxing mode : zlib
Codec ID : S_HDMV/PGS
Duration : 1 h 52 min
Bit rate : 22.1 kb/s
Count of elements : 2302
Stream size : 17.7 MiB (1%)
Language : Finnish
Default : No
Forced : No

Text #12
ID : 14
Format : PGS
Muxing mode : zlib
Codec ID : S_HDMV/PGS
Duration : 1 h 56 min
Bit rate : 25.7 kb/s
Count of elements : 2218
Stream size : 21.3 MiB (1%)
Language : French
Default : No
Forced : No

Text #13
ID : 15
Format : PGS
Muxing mode : zlib
Codec ID : S_HDMV/PGS
Duration : 1 h 56 min
Bit rate : 23.1 kb/s
Count of elements : 2324
Stream size : 19.2 MiB (1%)
Language : German
Default : No
Forced : No

Text #14
ID : 16
Format : PGS
Muxing mode : zlib
Codec ID : S_HDMV/PGS
Duration : 1 h 55 min
Bit rate : 33.5 kb/s
Count of elements : 3132
Stream size : 27.7 MiB (2%)
Language : German
Default : No
Forced : No

Text #15
ID : 17
Format : PGS
Muxing mode : zlib
Codec ID : S_HDMV/PGS
Duration : 1 h 54 min
Bit rate : 18.2 kb/s
Count of elements : 2302
Stream size : 14.9 MiB (1%)
Language : Hebrew
Default : No
Forced : No

Text #16
ID : 18
Format : PGS
Muxing mode : zlib
Codec ID : S_HDMV/PGS
Duration : 1 h 56 min
Bit rate : 24.3 kb/s
Count of elements : 2332
Stream size : 20.2 MiB (1%)
Language : Hungarian
Default : No
Forced : No

Text #17
ID : 19
Format : PGS
Muxing mode : zlib
Codec ID : S_HDMV/PGS
Duration : 1 h 56 min
Bit rate : 23.8 kb/s
Count of elements : 2296
Stream size : 19.7 MiB (1%)
Language : Icelandic
Default : No
Forced : No

Text #18
ID : 20
Format : PGS
Muxing mode : zlib
Codec ID : S_HDMV/PGS
Duration : 1 h 54 min
Bit rate : 26.0 kb/s
Count of elements : 2740
Stream size : 21.4 MiB (1%)
Language : Italian
Default : No
Forced : No

Text #19
ID : 21
Format : PGS
Muxing mode : zlib
Codec ID : S_HDMV/PGS
Duration : 1 h 55 min
Bit rate : 32.4 kb/s
Count of elements : 3218
Stream size : 26.8 MiB (2%)
Language : Italian
Default : No
Forced : No

Text #20
ID : 22
Format : PGS
Muxing mode : zlib
Codec ID : S_HDMV/PGS
Duration : 1 h 52 min
Bit rate : 23.6 kb/s
Count of elements : 2194
Stream size : 18.9 MiB (1%)
Language : Japanese
Default : No
Forced : No

Text #21
ID : 23
Format : PGS
Muxing mode : zlib
Codec ID : S_HDMV/PGS
Duration : 1 h 52 min
Bit rate : 20.5 kb/s
Count of elements : 2690
Stream size : 16.5 MiB (1%)
Language : Korean
Default : No
Forced : No

Text #22
ID : 24
Format : PGS
Muxing mode : zlib
Codec ID : S_HDMV/PGS
Duration : 1 h 50 min
Bit rate : 24.7 kb/s
Count of elements : 2244
Stream size : 19.6 MiB (1%)
Language : Norwegian
Default : No
Forced : No

Text #23
ID : 25
Format : PGS
Muxing mode : zlib
Codec ID : S_HDMV/PGS
Duration : 1 h 50 min
Bit rate : 26.9 kb/s
Count of elements : 2380
Stream size : 21.3 MiB (1%)
Language : Polish
Default : No
Forced : No

Text #24
ID : 26
Format : PGS
Muxing mode : zlib
Codec ID : S_HDMV/PGS
Duration : 1 h 56 min
Bit rate : 23.8 kb/s
Count of elements : 2080
Stream size : 19.8 MiB (1%)
Language : Portuguese
Default : No
Forced : No

Text #25
ID : 27
Format : PGS
Muxing mode : zlib
Codec ID : S_HDMV/PGS
Duration : 1 h 56 min
Bit rate : 24.5 kb/s
Count of elements : 2330
Stream size : 20.4 MiB (1%)
Language : Portuguese
Default : No
Forced : No

Text #26
ID : 28
Format : PGS
Muxing mode : zlib
Codec ID : S_HDMV/PGS
Duration : 1 h 52 min
Bit rate : 24.8 kb/s
Count of elements : 2436
Stream size : 19.9 MiB (1%)
Language : Romanian
Default : No
Forced : No

Text #27
ID : 29
Format : PGS
Muxing mode : zlib
Codec ID : S_HDMV/PGS
Duration : 1 h 52 min
Bit rate : 28.0 kb/s
Count of elements : 2364
Stream size : 22.5 MiB (2%)
Language : Spanish
Default : No
Forced : No

Text #28
ID : 30
Format : PGS
Muxing mode : zlib
Codec ID : S_HDMV/PGS
Duration : 1 h 52 min
Bit rate : 32.1 kb/s
Count of elements : 2968
Stream size : 25.8 MiB (2%)
Language : Spanish
Default : No
Forced : No

Text #29
ID : 31
Format : PGS
Muxing mode : zlib
Codec ID : S_HDMV/PGS
Duration : 1 h 50 min
Bit rate : 24.2 kb/s
Count of elements : 2244
Stream size : 19.2 MiB (1%)
Language : Swedish
Default : No
Forced : No

Text #30
ID : 32
Format : PGS
Muxing mode : zlib
Codec ID : S_HDMV/PGS
Duration : 1 h 56 min
Bit rate : 26.4 kb/s
Count of elements : 2932
Stream size : 21.9 MiB (2%)
Language : Thai
Default : No
Forced : No

Text #31
ID : 33
Format : PGS
Muxing mode : zlib
Codec ID : S_HDMV/PGS
Duration : 1 h 54 min
Bit rate : 24.7 kb/s
Count of elements : 2288
Stream size : 20.3 MiB (1%)
Language : Turkish
Default : No
Forced : No

[collapse]
Download Link(s)

Download

Direct download files get automatically deleted after a month or so. Posted on : 06/14/2022

[collapse]
Magnet Link

Magnet

Full.Metal.Jacket.1987.1080p.BluRay.x264.DTS-HD.MA.5.1-SWTYBLZ-15.96 GB

[collapse]

Media information

General
Format : Matroska
Format version : Version 4
File size : 1.43 GiB
Duration : 1 h 56 min
Overall bit rate : 1 752 kb/s
Movie name : Full.Metal.Jacket.1987.720p.10bit.BluRay.6CH.x265.HEVC

Video
ID : 1
Format : HEVC
Format/Info : High Efficiency Video Coding
Format profile : Main [email protected]@Main
Codec ID : V_MPEGH/ISO/HEVC
Duration : 1 h 56 min
Bit rate : 1 098 kb/s
Width : 1 280 pixels
Height : 720 pixels
Display aspect ratio : 16:9
Frame rate mode : Constant
Frame rate : 23.976 (24000/1001) FPS
Color space : YUV
Chroma subsampling : 4:2:0 (Type 0)
Bit depth : 10 bits
Bits/(Pixel*Frame) : 0.050
Stream size : 915 MiB (63%)
Default : Yes
Forced : No
Color range : Limited

Audio
ID : 2
Format : AAC LC
Codec ID : A_AAC-2
Duration : 1 h 56 min
Bit rate : 288 kb/s
Channel(s) : 6 channels
Channel layout : L R C Cb Lb Rb
Sampling rate : 48.0 kHz
Frame rate : 46.875 FPS (1024 SPF)
Compression mode : Lossy
Delay relative to video : -21 ms
Stream size : 241 MiB (16%)
Language : English
Default : Yes
Forced : No

Text #1
ID : 3
Format : UTF-8
Codec ID : S_TEXT/UTF8
Codec ID/Info : UTF-8 Plain Text
Duration : 1 h 50 min
Bit rate : 57 b/s
Count of elements : 1357
Stream size : 46.3 KiB (0%)
Language : English
Default : Yes
Forced : No

Text #2
ID : 4
Format : PGS
Muxing mode : zlib
Codec ID : S_HDMV/PGS
Duration : 1 h 54 min
Bit rate : 30.0 kb/s
Count of elements : 2732
Stream size : 24.6 MiB (2%)
Language : English
Default : No
Forced : No

Text #3
ID : 5
Format : PGS
Muxing mode : zlib
Codec ID : S_HDMV/PGS
Duration : 1 h 55 min
Bit rate : 36.5 kb/s
Count of elements : 3126
Stream size : 30.2 MiB (2%)
Language : English
Default : No
Forced : No

Text #4
ID : 6
Format : PGS
Muxing mode : zlib
Codec ID : S_HDMV/PGS
Duration : 1 h 52 min
Bit rate : 17.8 kb/s
Count of elements : 2374
Stream size : 14.3 MiB (1%)
Language : Arabic
Default : No
Forced : No

Text #5
ID : 7
Format : PGS
Muxing mode : zlib
Codec ID : S_HDMV/PGS
Duration : 1 h 52 min
Bit rate : 26.3 kb/s
Count of elements : 2912
Stream size : 21.1 MiB (1%)
Language : Chinese
Default : No
Forced : No

Text #6
ID : 8
Format : PGS
Muxing mode : zlib
Codec ID : S_HDMV/PGS
Duration : 1 h 56 min
Bit rate : 29.2 kb/s
Count of elements : 2978
Stream size : 24.2 MiB (2%)
Language : Chinese
Default : No
Forced : No

Text #7
ID : 9
Format : PGS
Muxing mode : zlib
Codec ID : S_HDMV/PGS
Duration : 1 h 54 min
Bit rate : 22.0 kb/s
Count of elements : 2322
Stream size : 18.1 MiB (1%)
Language : Croatian
Default : No
Forced : No

Text #8
ID : 10
Format : PGS
Muxing mode : zlib
Codec ID : S_HDMV/PGS
Duration : 1 h 52 min
Bit rate : 27.0 kb/s
Count of elements : 2810
Stream size : 21.7 MiB (1%)
Language : Czech
Default : No
Forced : No

Text #9
ID : 11
Format : PGS
Muxing mode : zlib
Codec ID : S_HDMV/PGS
Duration : 1 h 56 min
Bit rate : 24.8 kb/s
Count of elements : 2310
Stream size : 20.6 MiB (1%)
Language : Danish
Default : No
Forced : No

Text #10
ID : 12
Format : PGS
Muxing mode : zlib
Codec ID : S_HDMV/PGS
Duration : 1 h 50 min
Bit rate : 26.3 kb/s
Count of elements : 2378
Stream size : 20.9 MiB (1%)
Language : Dutch
Default : No
Forced : No

Text #11
ID : 13
Format : PGS
Muxing mode : zlib
Codec ID : S_HDMV/PGS
Duration : 1 h 52 min
Bit rate : 22.1 kb/s
Count of elements : 2302
Stream size : 17.7 MiB (1%)
Language : Finnish
Default : No
Forced : No

Text #12
ID : 14
Format : PGS
Muxing mode : zlib
Codec ID : S_HDMV/PGS
Duration : 1 h 56 min
Bit rate : 25.7 kb/s
Count of elements : 2218
Stream size : 21.3 MiB (1%)
Language : French
Default : No
Forced : No

Text #13
ID : 15
Format : PGS
Muxing mode : zlib
Codec ID : S_HDMV/PGS
Duration : 1 h 56 min
Bit rate : 23.1 kb/s
Count of elements : 2324
Stream size : 19.2 MiB (1%)
Language : German
Default : No
Forced : No

Text #14
ID : 16
Format : PGS
Muxing mode : zlib
Codec ID : S_HDMV/PGS
Duration : 1 h 55 min
Bit rate : 33.5 kb/s
Count of elements : 3132
Stream size : 27.7 MiB (2%)
Language : German
Default : No
Forced : No

Text #15
ID : 17
Format : PGS
Muxing mode : zlib
Codec ID : S_HDMV/PGS
Duration : 1 h 54 min
Bit rate : 18.2 kb/s
Count of elements : 2302
Stream size : 14.9 MiB (1%)
Language : Hebrew
Default : No
Forced : No

Text #16
ID : 18
Format : PGS
Muxing mode : zlib
Codec ID : S_HDMV/PGS
Duration : 1 h 56 min
Bit rate : 24.3 kb/s
Count of elements : 2332
Stream size : 20.2 MiB (1%)
Language : Hungarian
Default : No
Forced : No

Text #17
ID : 19
Format : PGS
Muxing mode : zlib
Codec ID : S_HDMV/PGS
Duration : 1 h 56 min
Bit rate : 23.8 kb/s
Count of elements : 2296
Stream size : 19.7 MiB (1%)
Language : Icelandic
Default : No
Forced : No

Text #18
ID : 20
Format : PGS
Muxing mode : zlib
Codec ID : S_HDMV/PGS
Duration : 1 h 54 min
Bit rate : 26.0 kb/s
Count of elements : 2740
Stream size : 21.4 MiB (1%)
Language : Italian
Default : No
Forced : No

Text #19
ID : 21
Format : PGS
Muxing mode : zlib
Codec ID : S_HDMV/PGS
Duration : 1 h 55 min
Bit rate : 32.4 kb/s
Count of elements : 3218
Stream size : 26.8 MiB (2%)
Language : Italian
Default : No
Forced : No

Text #20
ID : 22
Format : PGS
Muxing mode : zlib
Codec ID : S_HDMV/PGS
Duration : 1 h 52 min
Bit rate : 23.6 kb/s
Count of elements : 2194
Stream size : 18.9 MiB (1%)
Language : Japanese
Default : No
Forced : No

Text #21
ID : 23
Format : PGS
Muxing mode : zlib
Codec ID : S_HDMV/PGS
Duration : 1 h 52 min
Bit rate : 20.5 kb/s
Count of elements : 2690
Stream size : 16.5 MiB (1%)
Language : Korean
Default : No
Forced : No

Text #22
ID : 24
Format : PGS
Muxing mode : zlib
Codec ID : S_HDMV/PGS
Duration : 1 h 50 min
Bit rate : 24.7 kb/s
Count of elements : 2244
Stream size : 19.6 MiB (1%)
Language : Norwegian
Default : No
Forced : No

Text #23
ID : 25
Format : PGS
Muxing mode : zlib
Codec ID : S_HDMV/PGS
Duration : 1 h 50 min
Bit rate : 26.9 kb/s
Count of elements : 2380
Stream size : 21.3 MiB (1%)
Language : Polish
Default : No
Forced : No

Text #24
ID : 26
Format : PGS
Muxing mode : zlib
Codec ID : S_HDMV/PGS
Duration : 1 h 56 min
Bit rate : 23.8 kb/s
Count of elements : 2080
Stream size : 19.8 MiB (1%)
Language : Portuguese
Default : No
Forced : No

Text #25
ID : 27
Format : PGS
Muxing mode : zlib
Codec ID : S_HDMV/PGS
Duration : 1 h 56 min
Bit rate : 24.5 kb/s
Count of elements : 2330
Stream size : 20.4 MiB (1%)
Language : Portuguese
Default : No
Forced : No

Text #26
ID : 28
Format : PGS
Muxing mode : zlib
Codec ID : S_HDMV/PGS
Duration : 1 h 52 min
Bit rate : 24.8 kb/s
Count of elements : 2436
Stream size : 19.9 MiB (1%)
Language : Romanian
Default : No
Forced : No

Text #27
ID : 29
Format : PGS
Muxing mode : zlib
Codec ID : S_HDMV/PGS
Duration : 1 h 52 min
Bit rate : 28.0 kb/s
Count of elements : 2364
Stream size : 22.5 MiB (2%)
Language : Spanish
Default : No
Forced : No

Text #28
ID : 30
Format : PGS
Muxing mode : zlib
Codec ID : S_HDMV/PGS
Duration : 1 h 52 min
Bit rate : 32.1 kb/s
Count of elements : 2968
Stream size : 25.8 MiB (2%)
Language : Spanish
Default : No
Forced : No

Text #29
ID : 31
Format : PGS
Muxing mode : zlib
Codec ID : S_HDMV/PGS
Duration : 1 h 50 min
Bit rate : 24.2 kb/s
Count of elements : 2244
Stream size : 19.2 MiB (1%)
Language : Swedish
Default : No
Forced : No

Text #30
ID : 32
Format : PGS
Muxing mode : zlib
Codec ID : S_HDMV/PGS
Duration : 1 h 56 min
Bit rate : 26.4 kb/s
Count of elements : 2932
Stream size : 21.9 MiB (2%)
Language : Thai
Default : No
Forced : No

Text #31
ID : 33
Format : PGS
Muxing mode : zlib
Codec ID : S_HDMV/PGS
Duration : 1 h 54 min
Bit rate : 24.7 kb/s
Count of elements : 2288
Stream size : 20.3 MiB (1%)
Language : Turkish
Default : No
Forced : No

[collapse]
Download Link(s)

Download

Direct download files get automatically deleted after a month or so. Posted on : 06/14/2022

[collapse]
Magnet Link

Magnet

Full.Metal.Jacket.1987.1080p.BluRay.x264.DTS-HD.MA.5.1-SWTYBLZ-15.96 GB

[collapse]

You may also like...

error: nah :p~