From Hell (2001)

R | 2h 2min | Horror, Mystery, Thriller

In Victorian-era London, a troubled clairvoyant police detective investigates the murders of Jack the Ripper.

Watch trailer

Media information

General
Format : Matroska
Format version : Version 4
File size : 2.26 GiB
Duration : 2 h 2 min
Overall bit rate : 2 650 kb/s
Frame rate : 23.976 FPS
Movie name : From.Hell.2001.1080p.10bit.BluRay.6CH.x265.HEVC

Video
ID : 1
Format : HEVC
Format/Info : High Efficiency Video Coding
Format profile : Main 10@L4@Main
Codec ID : V_MPEGH/ISO/HEVC
Duration : 2 h 2 min
Bit rate : 2 263 kb/s
Width : 1 920 pixels
Height : 1 080 pixels
Display aspect ratio : 16:9
Frame rate mode : Constant
Frame rate : 23.976 (24000/1001) FPS
Color space : YUV
Chroma subsampling : 4:2:0 (Type 0)
Bit depth : 10 bits
Bits/(Pixel*Frame) : 0.046
Stream size : 1.93 GiB (85%)
Default : Yes
Forced : No
Color range : Limited

Audio
ID : 2
Format : AAC LC
Codec ID : A_AAC-2
Duration : 2 h 2 min
Bit rate : 384 kb/s
Channel(s) : 6 channels
Channel layout : L R C Cb Lb Rb
Sampling rate : 48.0 kHz
Frame rate : 46.875 FPS (1024 SPF)
Compression mode : Lossy
Stream size : 336 MiB (15%)
Language : English
Default : Yes
Forced : No

Text
ID : 3
Format : UTF-8
Codec ID : S_TEXT/UTF8
Codec ID/Info : UTF-8 Plain Text
Duration : 1 h 53 min
Bit rate : 52 b/s
Frame rate : 0.177 FPS
Count of elements : 1202
Stream size : 43.2 KiB (0%)
Language : English
Default : Yes
Forced : No

[collapse]
Download Link(s)

Download

Direct download files get automatically deleted after a month or so. Posted on : 11/28/2023

[collapse]
Magnet Link

Magnet

From.Hell.2001.BDrip.1080p.x264.DTSHD.Auido-CHD-8.89 GB

[collapse]

Media information

General
Format : Matroska
Format version : Version 4
File size : 1.17 GiB
Duration : 2 h 2 min
Overall bit rate : 1 370 kb/s
Frame rate : 23.976 FPS
Movie name : From.Hell.2001.720p.10bit.BluRay.6CH.x265.HEVC

Video
ID : 1
Format : HEVC
Format/Info : High Efficiency Video Coding
Format profile : Main [email protected]@Main
Codec ID : V_MPEGH/ISO/HEVC
Duration : 2 h 2 min
Bit rate : 1 079 kb/s
Width : 1 280 pixels
Height : 720 pixels
Display aspect ratio : 16:9
Frame rate mode : Constant
Frame rate : 23.976 (24000/1001) FPS
Color space : YUV
Chroma subsampling : 4:2:0 (Type 0)
Bit depth : 10 bits
Bits/(Pixel*Frame) : 0.049
Stream size : 944 MiB (79%)
Default : Yes
Forced : No
Color range : Limited

Audio
ID : 2
Format : AAC LC
Codec ID : A_AAC-2
Duration : 2 h 2 min
Bit rate : 288 kb/s
Channel(s) : 6 channels
Channel layout : L R C Cb Lb Rb
Sampling rate : 48.0 kHz
Frame rate : 46.875 FPS (1024 SPF)
Compression mode : Lossy
Stream size : 252 MiB (21%)
Language : English
Default : Yes
Forced : No

Text
ID : 3
Format : UTF-8
Codec ID : S_TEXT/UTF8
Codec ID/Info : UTF-8 Plain Text
Duration : 1 h 53 min
Bit rate : 52 b/s
Frame rate : 0.177 FPS
Count of elements : 1202
Stream size : 43.2 KiB (0%)
Language : English
Default : Yes
Forced : No

[collapse]
Download Link(s)

Download

Direct download files get automatically deleted after a month or so. Posted on : 11/28/2023

[collapse]
Magnet Link

Magnet

From.Hell.2001.BDrip.1080p.x264.DTSHD.Auido-CHD-8.89 GB

[collapse]

You may also like...

error: nah :p~