Friday the 13th: A New Beginning (1985)

R | 1h 32min | Horror, Mystery, Thriller | 22 March 1985 (USA)

Still haunted by his past, Tommy Jarvis – who, as a child, killed Jason Voorhees – wonders if the serial killer is connected to a series of brutal murders occurring in and around the secluded halfway house where he now lives.

Watch trailer

Media information

General
Format : Matroska
Format version : Version 4
File size : 1.23 GiB
Duration : 1 h 32 min
Overall bit rate : 1 908 kb/s
Movie name : Friday.the.13th.A.New.Beginning.1985.1080p.10bit.BluRay.6CH.x265.HEVC

Video
ID : 1
Format : HEVC
Format/Info : High Efficiency Video Coding
Format profile : Main [email protected]@Main
Codec ID : V_MPEGH/ISO/HEVC
Duration : 1 h 32 min
Bit rate : 1 701 kb/s
Width : 1 920 pixels
Height : 1 036 pixels
Display aspect ratio : 1.85:1
Frame rate mode : Constant
Frame rate : 23.976 (24000/1001) FPS
Color space : YUV
Chroma subsampling : 4:2:0
Bit depth : 10 bits
Bits/(Pixel*Frame) : 0.036
Stream size : 1.10 GiB (89%)
Default : Yes
Forced : No
Color range : Limited
Color primaries : BT.709
Transfer characteristics : BT.709
Matrix coefficients : BT.709

Audio
ID : 2
Format : AAC LC
Codec ID : A_AAC-2
Duration : 1 h 32 min
Bit rate : 192 kb/s
Channel(s) : 6 channels
Channel layout : C L R Ls Rs LFE
Sampling rate : 48.0 kHz
Frame rate : 46.875 FPS (1024 SPF)
Compression mode : Lossy
Delay relative to video : -21 ms
Stream size : 126 MiB (10%)
Language : English
Default : Yes
Forced : No

Text
ID : 3
Format : PGS
Muxing mode : zlib
Codec ID : S_HDMV/PGS
Duration : 1 h 28 min
Bit rate : 24.0 kb/s
Count of elements : 1804
Stream size : 15.3 MiB (1%)
Language : English
Default : Yes
Forced : Yes

[collapse]
Download Link(s)

Download

Direct download files get automatically deleted after a month or so. Posted on : 03/29/2021

[collapse]
Magnet Link

Magnet

Friday.the.13th.A.New.Beginning.1985.REPACK.1080p.BluRay.x265.HEVC.10bit.AAC.5.1-5.0 GB

[collapse]

Media information

General
Format : Matroska
Format version : Version 4
File size : 632 MiB
Duration : 1 h 32 min
Overall bit rate : 957 kb/s
Movie name : Friday.the.13th.A.New.Beginning.1985.720p.10bit.BluRay.6CH.x265.HEVC

Video
ID : 1
Format : HEVC
Format/Info : High Efficiency Video Coding
Format profile : Main [email protected]@Main
Codec ID : V_MPEGH/ISO/HEVC
Duration : 1 h 32 min
Bit rate : 751 kb/s
Width : 1 280 pixels
Height : 692 pixels
Display aspect ratio : 1.85:1
Frame rate mode : Constant
Frame rate : 23.976 (24000/1001) FPS
Color space : YUV
Chroma subsampling : 4:2:0
Bit depth : 10 bits
Bits/(Pixel*Frame) : 0.035
Stream size : 495 MiB (78%)
Default : Yes
Forced : No
Color range : Limited
Color primaries : BT.709
Transfer characteristics : BT.709
Matrix coefficients : BT.709

Audio
ID : 2
Format : AAC LC
Codec ID : A_AAC-2
Duration : 1 h 32 min
Bit rate : 192 kb/s
Channel(s) : 6 channels
Channel layout : C L R Ls Rs LFE
Sampling rate : 48.0 kHz
Frame rate : 46.875 FPS (1024 SPF)
Compression mode : Lossy
Delay relative to video : -21 ms
Stream size : 126 MiB (20%)
Language : English
Default : Yes
Forced : No

Text
ID : 3
Format : PGS
Muxing mode : zlib
Codec ID : S_HDMV/PGS
Duration : 1 h 28 min
Bit rate : 24.0 kb/s
Count of elements : 1804
Stream size : 15.3 MiB (2%)
Language : English
Default : Yes
Forced : Yes

[collapse]
Download Link(s)

Download

Direct download files get automatically deleted after a month or so. Posted on : 03/29/2021

[collapse]
Magnet Link

Magnet

Friday.the.13th.A.New.Beginning.1985.REPACK.1080p.BluRay.x265.HEVC.10bit.AAC.5.1-5.0 GB

[collapse]

You may also like...

error: nah :p~