Freud’s Last Session (2023)

PG-13 | 1h 48min | Drama

Freud invites iconic author C.S. Lewis to debate the existence of God. And his unique relationship with his daughter, and Lewis’ unconventional relationship with his best friend’s mother.

Watch trailer

Media information

General
Format : Matroska
Format version : Version 4
File size : 1.25 GiB
Duration : 1 h 48 min
Overall bit rate : 1 652 kb/s
Frame rate : 23.976 FPS
Movie name : Freuds.Last.Session.2023.1080p.10bit.WEBRip.6CH.x265.HEVC

Video
ID : 1
Format : HEVC
Format/Info : High Efficiency Video Coding
Format profile : Main 10@L4@Main
Codec ID : V_MPEGH/ISO/HEVC
Duration : 1 h 48 min
Bit rate : 1 446 kb/s
Width : 1 920 pixels
Height : 800 pixels
Display aspect ratio : 2.40:1
Frame rate mode : Constant
Frame rate : 23.976 (24000/1001) FPS
Color space : YUV
Chroma subsampling : 4:2:0
Bit depth : 10 bits
Bits/(Pixel*Frame) : 0.039
Stream size : 1.09 GiB (88%)
Default : Yes
Forced : No
Color range : Limited
Color primaries : BT.709
Transfer characteristics : BT.709
Matrix coefficients : BT.709

Audio
ID : 2
Format : AAC LC SBR
Commercial name : HE-AAC
Format settings : Explicit
Codec ID : A_AAC-2
Duration : 1 h 48 min
Bit rate : 204 kb/s
Channel(s) : 6 channels
Channel layout : C L R Ls Rs LFE
Sampling rate : 48.0 kHz
Frame rate : 23.438 FPS (2048 SPF)
Compression mode : Lossy
Delay relative to video : 23 ms
Stream size : 158 MiB (12%)
Language : English
Default : Yes
Forced : No

Text #1
ID : 3
Format : UTF-8
Codec ID : S_TEXT/UTF8
Codec ID/Info : UTF-8 Plain Text
Duration : 1 h 38 min
Bit rate : 65 b/s
Frame rate : 0.266 FPS
Count of elements : 1577
Stream size : 47.5 KiB (0%)
Language : English (US)
Default : No
Forced : No

Text #2
ID : 4
Format : UTF-8
Codec ID : S_TEXT/UTF8
Codec ID/Info : UTF-8 Plain Text
Duration : 1 h 11 min
Bit rate : 1 b/s
Frame rate : 0.006 FPS
Count of elements : 24
Stream size : 837 Bytes (0%)
Title : Forced
Language : English (US)
Default : No
Forced : Yes

Text #3
ID : 5
Format : UTF-8
Codec ID : S_TEXT/UTF8
Codec ID/Info : UTF-8 Plain Text
Duration : 1 h 40 min
Bit rate : 71 b/s
Frame rate : 0.293 FPS
Count of elements : 1769
Stream size : 52.7 KiB (0%)
Title : SDH
Language : English (US)
Default : Yes
Forced : No

Text #4
ID : 6
Format : UTF-8
Codec ID : S_TEXT/UTF8
Codec ID/Info : UTF-8 Plain Text
Duration : 1 h 47 min
Bit rate : 56 b/s
Frame rate : 0.237 FPS
Count of elements : 1528
Stream size : 44.3 KiB (0%)
Language : French (FR)
Default : No
Forced : No

[collapse]
Download Link(s)

Download

Direct download files get automatically deleted after a month or so. Posted on : 02/20/2024

[collapse]
Magnet Link

Magnet

Freuds.Last.Session.2023.1080p.WEB.H264.MeanGirlsGroupWasAFreudianSlip.TGx-4.2 GB

[collapse]

Media information

General
Format : Matroska
Format version : Version 4
File size : 666 MiB
Duration : 1 h 48 min
Overall bit rate : 860 kb/s
Frame rate : 23.976 FPS
Movie name : Freuds.Last.Session.2023.720p.10bit.WEBRip.6CH.x265.HEVC

Video
ID : 1
Format : HEVC
Format/Info : High Efficiency Video Coding
Format profile : Main [email protected]@Main
Codec ID : V_MPEGH/ISO/HEVC
Duration : 1 h 48 min
Bit rate : 654 kb/s
Width : 1 280 pixels
Height : 536 pixels
Display aspect ratio : 2.39:1
Frame rate mode : Constant
Frame rate : 23.976 (24000/1001) FPS
Color space : YUV
Chroma subsampling : 4:2:0
Bit depth : 10 bits
Bits/(Pixel*Frame) : 0.040
Stream size : 507 MiB (76%)
Default : Yes
Forced : No
Color range : Limited
Color primaries : BT.709
Transfer characteristics : BT.709
Matrix coefficients : BT.709

Audio
ID : 2
Format : AAC LC SBR
Commercial name : HE-AAC
Format settings : Explicit
Codec ID : A_AAC-2
Duration : 1 h 48 min
Bit rate : 204 kb/s
Channel(s) : 6 channels
Channel layout : C L R Ls Rs LFE
Sampling rate : 48.0 kHz
Frame rate : 23.438 FPS (2048 SPF)
Compression mode : Lossy
Delay relative to video : 23 ms
Stream size : 158 MiB (24%)
Language : English
Default : Yes
Forced : No

Text #1
ID : 3
Format : UTF-8
Codec ID : S_TEXT/UTF8
Codec ID/Info : UTF-8 Plain Text
Duration : 1 h 38 min
Bit rate : 65 b/s
Frame rate : 0.266 FPS
Count of elements : 1577
Stream size : 47.5 KiB (0%)
Language : English (US)
Default : No
Forced : No

Text #2
ID : 4
Format : UTF-8
Codec ID : S_TEXT/UTF8
Codec ID/Info : UTF-8 Plain Text
Duration : 1 h 11 min
Bit rate : 1 b/s
Frame rate : 0.006 FPS
Count of elements : 24
Stream size : 837 Bytes (0%)
Title : Forced
Language : English (US)
Default : No
Forced : Yes

Text #3
ID : 5
Format : UTF-8
Codec ID : S_TEXT/UTF8
Codec ID/Info : UTF-8 Plain Text
Duration : 1 h 40 min
Bit rate : 71 b/s
Frame rate : 0.293 FPS
Count of elements : 1769
Stream size : 52.7 KiB (0%)
Title : SDH
Language : English (US)
Default : Yes
Forced : No

Text #4
ID : 6
Format : UTF-8
Codec ID : S_TEXT/UTF8
Codec ID/Info : UTF-8 Plain Text
Duration : 1 h 47 min
Bit rate : 56 b/s
Frame rate : 0.237 FPS
Count of elements : 1528
Stream size : 44.3 KiB (0%)
Language : French (FR)
Default : No
Forced : No

[collapse]
Download Link(s)

Download

Direct download files get automatically deleted after a month or so. Posted on : 02/20/2024

[collapse]
Magnet Link

Magnet

Freuds.Last.Session.2023.1080p.WEB.H264.MeanGirlsGroupWasAFreudianSlip.TGx-4.2 GB

[collapse]

You may also like...

error: nah :p~