Freddy’s Dead: The Final Nightmare (1991)

R | 1h 29min | Fantasy, Horror | 13 September 1991 (USA)

Dream-haunting Freddy Krueger returns once again to prowl the nightmares of Springwood’s last surviving teenager, and of a woman whose personal connection to Krueger may mean his doom.

Watch trailer

Media information

General
Format : Matroska
Format version : Version 4
File size : 1.19 GiB
Duration : 1 h 29 min
Overall bit rate : 1 906 kb/s
Movie name : Freddys.Dead.The.Final.Nightmare.1991.1080p.10bit.BluRay.6CH.x265.HEVC

Video
ID : 1
Format : HEVC
Format/Info : High Efficiency Video Coding
Format profile : Main [email protected]@Main
Codec ID : V_MPEGH/ISO/HEVC
Duration : 1 h 29 min
Bit rate : 1 700 kb/s
Width : 1 920 pixels
Height : 1 080 pixels
Display aspect ratio : 16:9
Frame rate mode : Constant
Frame rate : 23.976 (24000/1001) FPS
Color space : YUV
Chroma subsampling : 4:2:0
Bit depth : 10 bits
Bits/(Pixel*Frame) : 0.034
Stream size : 1.06 GiB (89%)
Default : Yes
Forced : No
Color range : Limited
Color primaries : BT.709
Transfer characteristics : BT.709
Matrix coefficients : BT.709

Audio
ID : 2
Format : AAC LC
Codec ID : A_AAC-2
Duration : 1 h 29 min
Bit rate : 192 kb/s
Channel(s) : 6 channels
Channel layout : C L R Ls Rs LFE
Sampling rate : 48.0 kHz
Frame rate : 46.875 FPS (1024 SPF)
Compression mode : Lossy
Delay relative to video : -21 ms
Stream size : 123 MiB (10%)
Language : English
Default : Yes
Forced : No

Text
ID : 3
Format : PGS
Muxing mode : zlib
Codec ID : S_HDMV/PGS
Duration : 1 h 27 min
Bit rate : 25.0 kb/s
Count of elements : 1838
Stream size : 15.7 MiB (1%)
Language : English
Default : Yes
Forced : Yes

[collapse]
Download Link(s)

Download

Direct download files get automatically deleted after a month or so. Posted on : 04/06/2021

[collapse]
Magnet Link

Magnet

A.Nightmare.on.Elm.Street.Collection.1984.2010.1080p.10bit.Bluray.x265.HEVC.DD.2.0.Hindi.DD.5.1.English.ESubs-28.6 GB

[collapse]

Media information

General
Format : Matroska
Format version : Version 4
File size : 610 MiB
Duration : 1 h 29 min
Overall bit rate : 956 kb/s
Movie name : Freddys.Dead.The.Final.Nightmare.1991.720p.10bit.BluRay.6CH.x265.HEVC

Video
ID : 1
Format : HEVC
Format/Info : High Efficiency Video Coding
Format profile : Main [email protected]@Main
Codec ID : V_MPEGH/ISO/HEVC
Duration : 1 h 29 min
Bit rate : 751 kb/s
Width : 1 280 pixels
Height : 720 pixels
Display aspect ratio : 16:9
Frame rate mode : Constant
Frame rate : 23.976 (24000/1001) FPS
Color space : YUV
Chroma subsampling : 4:2:0
Bit depth : 10 bits
Bits/(Pixel*Frame) : 0.034
Stream size : 479 MiB (79%)
Default : Yes
Forced : No
Color range : Limited
Color primaries : BT.709
Transfer characteristics : BT.709
Matrix coefficients : BT.709

Audio
ID : 2
Format : AAC LC
Codec ID : A_AAC-2
Duration : 1 h 29 min
Bit rate : 192 kb/s
Channel(s) : 6 channels
Channel layout : C L R Ls Rs LFE
Sampling rate : 48.0 kHz
Frame rate : 46.875 FPS (1024 SPF)
Compression mode : Lossy
Delay relative to video : -21 ms
Stream size : 123 MiB (20%)
Language : English
Default : Yes
Forced : No

Text
ID : 3
Format : PGS
Muxing mode : zlib
Codec ID : S_HDMV/PGS
Duration : 1 h 27 min
Bit rate : 25.0 kb/s
Count of elements : 1838
Stream size : 15.7 MiB (3%)
Language : English
Default : Yes
Forced : Yes

[collapse]
Download Link(s)

Download

Direct download files get automatically deleted after a month or so. Posted on : 04/06/2021

[collapse]
Magnet Link

Magnet

A.Nightmare.on.Elm.Street.Collection.1984.2010.1080p.10bit.Bluray.x265.HEVC.DD.2.0.Hindi.DD.5.1.English.ESubs-28.6 GB

[collapse]

You may also like...

error: nah :p~