Fast & Furious 6 (2013)


Furious 6 (original title)|PG-13 | 2h 10min | Action, Adventure, Crime | 24 May 2013 (USA)

Hobbs has Dominic and Brian reassemble their crew to take down a team of mercenaries: Dominic unexpectedly gets sidetracked with facing his presumed deceased girlfriend, Letty.

Watch trailer

Media information

General
Format : Matroska
Format version : Version 4
File size : 1.76 GiB
Duration : 2 h 11 min
Overall bit rate : 1 926 kb/s
Movie name : Fast.and.Furious.6.2013.Extended.1080p.10bit.BluRay.8CH.x265.HEVC

Video
ID : 1
Format : HEVC
Format/Info : High Efficiency Video Coding
Format profile : Main [email protected]@Main
Codec ID : V_MPEGH/ISO/HEVC
Duration : 2 h 11 min
Bit rate : 1 501 kb/s
Width : 1 920 pixels
Height : 816 pixels
Display aspect ratio : 2.35:1
Frame rate mode : Constant
Frame rate : 23.976 (24000/1001) FPS
Color space : YUV
Chroma subsampling : 4:2:0
Bit depth : 10 bits
Bits/(Pixel*Frame) : 0.040
Stream size : 1.37 GiB (78%)
Default : Yes
Forced : No

Audio #1
ID : 2
Format : AAC LC
Codec ID : A_AAC-2
Duration : 2 h 10 min
Bit rate : 353 kb/s
Channel(s) : 8 channels
Channel layout : C L R Ls Rs Lw Rw LFE
Sampling rate : 48.0 kHz
Frame rate : 46.875 FPS (1024 SPF)
Compression mode : Lossy
Delay relative to video : 9 ms
Stream size : 335 MiB (19%)
Language : English
Default : Yes
Forced : No

Audio #2
ID : 3
Format : AAC LC SBR
Commercial name : HE-AAC
Format settings : Explicit
Codec ID : A_AAC-2
Duration : 2 h 11 min
Bit rate : 44.8 kb/s
Channel(s) : 2 channels
Channel layout : L R
Sampling rate : 48.0 kHz
Frame rate : 23.438 FPS (2048 SPF)
Compression mode : Lossy
Delay relative to video : 31 ms
Stream size : 42.0 MiB (2%)
Title : Commentary
Language : English
Default : No
Forced : No

Text #1
ID : 4
Format : PGS
Muxing mode : zlib
Codec ID : S_HDMV/PGS
Duration : 2 h 3 min
Bit rate : 30.9 kb/s
Count of elements : 2940
Stream size : 27.4 MiB (2%)
Title : English-PGS
Language : English
Default : Yes
Forced : No

Text #2
ID : 5
Format : VobSub
Muxing mode : zlib
Codec ID : S_VOBSUB
Duration : 2 h 2 min
Bit rate : 7 265 b/s
Count of elements : 1245
Stream size : 6.39 MiB (0%)
Language : Spanish
Default : No
Forced : No

Text #3
ID : 6
Format : VobSub
Muxing mode : zlib
Codec ID : S_VOBSUB
Duration : 2 h 2 min
Bit rate : 7 774 b/s
Count of elements : 1256
Stream size : 6.84 MiB (0%)
Language : French
Default : No
Forced : No

Text #4
ID : 7
Format : UTF-8
Codec ID : S_TEXT/UTF8
Codec ID/Info : UTF-8 Plain Text
Duration : 2 h 3 min
Bit rate : 65 b/s
Count of elements : 1295
Stream size : 59.8 KiB (0%)
Language : Arabic
Default : No
Forced : No

Text #5
ID : 8
Format : UTF-8
Codec ID : S_TEXT/UTF8
Codec ID/Info : UTF-8 Plain Text
Duration : 2 h 3 min
Bit rate : 37 b/s
Count of elements : 1254
Stream size : 33.7 KiB (0%)
Language : Portuguese
Default : No
Forced : No

Text #6
ID : 9
Format : UTF-8
Codec ID : S_TEXT/UTF8
Codec ID/Info : UTF-8 Plain Text
Duration : 2 h 3 min
Bit rate : 37 b/s
Count of elements : 1352
Stream size : 33.5 KiB (0%)
Language : Chinese
Default : No
Forced : No

Text #7
ID : 10
Format : UTF-8
Codec ID : S_TEXT/UTF8
Codec ID/Info : UTF-8 Plain Text
Duration : 2 h 3 min
Bit rate : 42 b/s
Count of elements : 931
Stream size : 38.6 KiB (0%)
Language : Danish
Default : No
Forced : No

Text #8
ID : 11
Format : UTF-8
Codec ID : S_TEXT/UTF8
Codec ID/Info : UTF-8 Plain Text
Duration : 2 h 4 min
Bit rate : 35 b/s
Count of elements : 890
Stream size : 32.5 KiB (0%)
Language : Dutch
Default : No
Forced : No

Text #9
ID : 12
Format : UTF-8
Codec ID : S_TEXT/UTF8
Codec ID/Info : UTF-8 Plain Text
Duration : 2 h 4 min
Bit rate : 75 b/s
Count of elements : 1281
Stream size : 68.7 KiB (0%)
Language : Persian
Default : No
Forced : No

Text #10
ID : 13
Format : UTF-8
Codec ID : S_TEXT/UTF8
Codec ID/Info : UTF-8 Plain Text
Duration : 2 h 3 min
Bit rate : 73 b/s
Count of elements : 1152
Stream size : 66.5 KiB (0%)
Language : Greek
Default : No
Forced : No

Text #11
ID : 14
Format : UTF-8
Codec ID : S_TEXT/UTF8
Codec ID/Info : UTF-8 Plain Text
Duration : 2 h 5 min
Bit rate : 84 b/s
Count of elements : 1303
Stream size : 78.0 KiB (0%)
Language : Indonesian
Default : No
Forced : No

Text #12
ID : 15
Format : UTF-8
Codec ID : S_TEXT/UTF8
Codec ID/Info : UTF-8 Plain Text
Duration : 55 s 37 ms
Bit rate : 43 b/s
Count of elements : 7
Stream size : 301 Bytes (0%)
Language : Malay
Default : No
Forced : No

Text #13
ID : 16
Format : UTF-8
Codec ID : S_TEXT/UTF8
Codec ID/Info : UTF-8 Plain Text
Duration : 2 h 3 min
Bit rate : 34 b/s
Count of elements : 1127
Stream size : 31.3 KiB (0%)
Language : Norwegian
Default : No
Forced : No

Text #14
ID : 17
Format : UTF-8
Codec ID : S_TEXT/UTF8
Codec ID/Info : UTF-8 Plain Text
Duration : 2 h 4 min
Bit rate : 46 b/s
Count of elements : 1253
Stream size : 42.6 KiB (0%)
Language : Portuguese
Default : No
Forced : No

Text #15
ID : 18
Format : UTF-8
Codec ID : S_TEXT/UTF8
Codec ID/Info : UTF-8 Plain Text
Duration : 2 h 2 min
Bit rate : 39 b/s
Count of elements : 844
Stream size : 35.8 KiB (0%)
Language : Swedish
Default : No
Forced : No

Text #16
ID : 19
Format : UTF-8
Codec ID : S_TEXT/UTF8
Codec ID/Info : UTF-8 Plain Text
Duration : 2 h 2 min
Bit rate : 99 b/s
Count of elements : 1263
Stream size : 89.8 KiB (0%)
Language : Thai
Default : No
Forced : No

Text #17
ID : 20
Format : UTF-8
Codec ID : S_TEXT/UTF8
Codec ID/Info : UTF-8 Plain Text
Duration : 2 h 4 min
Bit rate : 51 b/s
Count of elements : 1304
Stream size : 46.6 KiB (0%)
Language : Vietnamese
Default : No
Forced : No

[collapse]
Download Link(s)

Download

Direct download files get automatically deleted after a month or so. Posted on : 04/30/2020

[collapse]
Magnet Link

Magnet

Fast-and-Furious-6-2013-EE-1080p-BluRay-x265-HEVC-10bit-AAC-7-1-1.8 GB

[collapse]

Media information

General
Format : Matroska
Format version : Version 4
File size : 997 MiB
Duration : 2 h 11 min
Overall bit rate : 1 064 kb/s
Movie name : Fast.and.Furious.6.2013.Extended.720p.10bit.BluRay.6CH.x265.HEVC

Video
ID : 1
Format : HEVC
Format/Info : High Efficiency Video Coding
Format profile : Main [email protected]@Main
Codec ID : V_MPEGH/ISO/HEVC
Duration : 2 h 11 min
Bit rate : 850 kb/s
Width : 1 280 pixels
Height : 544 pixels
Display aspect ratio : 2.35:1
Frame rate mode : Constant
Frame rate : 23.976 (24000/1001) FPS
Color space : YUV
Chroma subsampling : 4:2:0
Bit depth : 10 bits
Bits/(Pixel*Frame) : 0.051
Stream size : 797 MiB (80%)
Default : Yes
Forced : No
Color range : Limited
Color primaries : BT.709
Transfer characteristics : BT.709
Matrix coefficients : BT.709

Audio
ID : 2
Format : AAC LC
Codec ID : A_AAC-2
Duration : 2 h 10 min
Bit rate : 192 kb/s
Channel(s) : 6 channels
Channel layout : C L R Ls Rs LFE
Sampling rate : 48.0 kHz
Frame rate : 46.875 FPS (1024 SPF)
Compression mode : Lossy
Delay relative to video : -12 ms
Stream size : 179 MiB (18%)
Title : Surround
Language : English
Default : Yes
Forced : No

Text #1
ID : 3
Format : PGS
Muxing mode : zlib
Codec ID : S_HDMV/PGS
Duration : 2 h 3 min
Bit rate : 30.9 kb/s
Count of elements : 2940
Stream size : 27.4 MiB (3%)
Title : English
Language : English
Default : Yes
Forced : Yes

Text #2
ID : 4
Format : VobSub
Muxing mode : zlib
Codec ID : S_VOBSUB
Duration : 2 h 2 min
Bit rate : 7 265 b/s
Count of elements : 1245
Stream size : 6.39 MiB (1%)
Language : Spanish
Default : No
Forced : No

Text #3
ID : 5
Format : VobSub
Muxing mode : zlib
Codec ID : S_VOBSUB
Duration : 2 h 2 min
Bit rate : 7 774 b/s
Count of elements : 1256
Stream size : 6.84 MiB (1%)
Language : French
Default : No
Forced : No

Text #4
ID : 6
Format : ASS
Codec ID : S_TEXT/ASS
Duration : 2 h 3 min
Bit rate : 95 b/s
Count of elements : 1295
Compression mode : Lossless
Stream size : 86.5 KiB (0%)
Language : Arabic
Default : No
Forced : No

Text #5
ID : 7
Format : ASS
Codec ID : S_TEXT/ASS
Duration : 2 h 3 min
Bit rate : 66 b/s
Count of elements : 1254
Compression mode : Lossless
Stream size : 59.7 KiB (0%)
Language : Portuguese
Default : No
Forced : No

Text #6
ID : 8
Format : ASS
Codec ID : S_TEXT/ASS
Duration : 2 h 3 min
Bit rate : 68 b/s
Count of elements : 1352
Compression mode : Lossless
Stream size : 61.5 KiB (0%)
Language : Chinese
Default : No
Forced : No

Text #7
ID : 9
Format : ASS
Codec ID : S_TEXT/ASS
Duration : 2 h 3 min
Bit rate : 63 b/s
Count of elements : 931
Compression mode : Lossless
Stream size : 57.6 KiB (0%)
Language : Danish
Default : No
Forced : No

Text #8
ID : 10
Format : ASS
Codec ID : S_TEXT/ASS
Duration : 2 h 4 min
Bit rate : 55 b/s
Count of elements : 890
Compression mode : Lossless
Stream size : 50.7 KiB (0%)
Language : Dutch
Default : No
Forced : No

Text #9
ID : 11
Format : ASS
Codec ID : S_TEXT/ASS
Duration : 2 h 4 min
Bit rate : 104 b/s
Count of elements : 1281
Compression mode : Lossless
Stream size : 95.1 KiB (0%)
Language : Persian
Default : No
Forced : No

Text #10
ID : 12
Format : ASS
Codec ID : S_TEXT/ASS
Duration : 2 h 3 min
Bit rate : 99 b/s
Count of elements : 1152
Compression mode : Lossless
Stream size : 90.2 KiB (0%)
Language : Greek
Default : No
Forced : No

Text #11
ID : 13
Format : ASS
Codec ID : S_TEXT/ASS
Duration : 2 h 5 min
Bit rate : 110 b/s
Count of elements : 1303
Compression mode : Lossless
Stream size : 101 KiB (0%)
Default : No
Forced : No

Text #12
ID : 14
Format : ASS
Codec ID : S_TEXT/ASS
Duration : 55 s 37 ms
Bit rate : 61 b/s
Count of elements : 7
Compression mode : Lossless
Stream size : 425 Bytes (0%)
Default : No
Forced : No

Text #13
ID : 15
Format : ASS
Codec ID : S_TEXT/ASS
Duration : 2 h 3 min
Bit rate : 60 b/s
Count of elements : 1127
Compression mode : Lossless
Stream size : 54.5 KiB (0%)
Language : Norwegian
Default : No
Forced : No

Text #14
ID : 16
Format : ASS
Codec ID : S_TEXT/ASS
Duration : 2 h 4 min
Bit rate : 75 b/s
Count of elements : 1253
Compression mode : Lossless
Stream size : 68.5 KiB (0%)
Language : Portuguese
Default : No
Forced : No

Text #15
ID : 17
Format : ASS
Codec ID : S_TEXT/ASS
Duration : 2 h 2 min
Bit rate : 58 b/s
Count of elements : 844
Compression mode : Lossless
Stream size : 53.1 KiB (0%)
Language : Swedish
Default : No
Forced : No

Text #16
ID : 18
Format : ASS
Codec ID : S_TEXT/ASS
Duration : 2 h 2 min
Bit rate : 128 b/s
Count of elements : 1263
Compression mode : Lossless
Stream size : 116 KiB (0%)
Language : Thai
Default : No
Forced : No

Text #17
ID : 19
Format : ASS
Codec ID : S_TEXT/ASS
Duration : 2 h 4 min
Bit rate : 80 b/s
Count of elements : 1304
Compression mode : Lossless
Stream size : 73.6 KiB (0%)
Language : Vietnamese
Default : No
Forced : No

[collapse]
Download Link(s)

Download

Direct download files get automatically deleted after a month or so. Posted on : 04/30/2020

[collapse]
Magnet Link

Magnet

Fast-and-Furious-6-2013-EE-1080p-BluRay-x265-HEVC-10bit-AAC-7-1-1.8 GB

[collapse]

You may also like...

error: nah :p~