Family Switch (2023)

PG | 1h 41min | Comedy, Family

When a chance encounter with an astrological reader causes the Walkers to wake up to a full body switch, can they unite to land a promotion, college interview, record deal, and soccer tryout?

Watch trailer

Media information

General
Format : Matroska
Format version : Version 4
File size : 1.45 GiB
Duration : 1 h 45 min
Overall bit rate : 1 968 kb/s
Frame rate : 24.000 FPS
Movie name : Family.Switch.2023.1080p.10bit.WEBRip.6CH.x265.HEVC

Video
ID : 1
Format : HEVC
Format/Info : High Efficiency Video Coding
Format profile : Main 10@L4@Main
Codec ID : V_MPEGH/ISO/HEVC
Duration : 1 h 45 min
Bit rate : 1 762 kb/s
Width : 1 920 pixels
Height : 808 pixels
Display aspect ratio : 2.40:1
Frame rate mode : Constant
Frame rate : 24.000 FPS
Color space : YUV
Chroma subsampling : 4:2:0
Bit depth : 10 bits
Bits/(Pixel*Frame) : 0.047
Stream size : 1.30 GiB (90%)
Default : Yes
Forced : No

Audio
ID : 2
Format : AAC LC SBR
Commercial name : HE-AAC
Format settings : Explicit
Codec ID : A_AAC-2
Duration : 1 h 41 min
Bit rate : 206 kb/s
Channel(s) : 6 channels
Channel layout : C L R Ls Rs LFE
Sampling rate : 48.0 kHz
Frame rate : 23.438 FPS (2048 SPF)
Compression mode : Lossy
Delay relative to video : 23 ms
Stream size : 150 MiB (10%)
Language : English
Default : Yes
Forced : No

Text #1
ID : 3
Format : UTF-8
Codec ID : S_TEXT/UTF8
Codec ID/Info : UTF-8 Plain Text
Duration : 1 h 34 min
Bit rate : 100 b/s
Frame rate : 0.356 FPS
Count of elements : 2023
Stream size : 69.4 KiB (0%)
Title : English (SDH)
Language : English
Default : Yes
Forced : No

Text #2
ID : 4
Format : UTF-8
Codec ID : S_TEXT/UTF8
Codec ID/Info : UTF-8 Plain Text
Duration : 1 h 40 min
Bit rate : 134 b/s
Frame rate : 0.294 FPS
Count of elements : 1775
Stream size : 98.9 KiB (0%)
Title : Arabic
Language : Arabic
Default : No
Forced : No

Text #3
ID : 5
Format : UTF-8
Codec ID : S_TEXT/UTF8
Codec ID/Info : UTF-8 Plain Text
Duration : 1 h 40 min
Bit rate : 69 b/s
Frame rate : 0.271 FPS
Count of elements : 1637
Stream size : 50.9 KiB (0%)
Title : Czech
Language : Czech
Default : No
Forced : No

Text #4
ID : 6
Format : UTF-8
Codec ID : S_TEXT/UTF8
Codec ID/Info : UTF-8 Plain Text
Duration : 1 h 40 min
Bit rate : 66 b/s
Frame rate : 0.263 FPS
Count of elements : 1588
Stream size : 48.8 KiB (0%)
Title : Danish
Language : Danish
Default : No
Forced : No

Text #5
ID : 7
Format : UTF-8
Codec ID : S_TEXT/UTF8
Codec ID/Info : UTF-8 Plain Text
Duration : 1 h 40 min
Bit rate : 68 b/s
Frame rate : 0.280 FPS
Count of elements : 1692
Stream size : 50.7 KiB (0%)
Title : German
Language : German
Default : No
Forced : No

Text #6
ID : 8
Format : UTF-8
Codec ID : S_TEXT/UTF8
Codec ID/Info : UTF-8 Plain Text
Duration : 1 h 40 min
Bit rate : 120 b/s
Frame rate : 0.274 FPS
Count of elements : 1656
Stream size : 88.8 KiB (0%)
Title : Greek
Language : Greek
Default : No
Forced : No

Text #7
ID : 9
Format : UTF-8
Codec ID : S_TEXT/UTF8
Codec ID/Info : UTF-8 Plain Text
Duration : 1 h 40 min
Bit rate : 70 b/s
Frame rate : 0.270 FPS
Count of elements : 1630
Stream size : 51.8 KiB (0%)
Title : Spanish (Latin America)
Language : Spanish
Default : No
Forced : No

Text #8
ID : 10
Format : UTF-8
Codec ID : S_TEXT/UTF8
Codec ID/Info : UTF-8 Plain Text
Duration : 1 h 40 min
Bit rate : 68 b/s
Frame rate : 0.263 FPS
Count of elements : 1587
Stream size : 50.8 KiB (0%)
Title : Spanish (Spain)
Language : Spanish
Default : No
Forced : No

Text #9
ID : 11
Format : UTF-8
Codec ID : S_TEXT/UTF8
Codec ID/Info : UTF-8 Plain Text
Duration : 1 h 40 min
Bit rate : 61 b/s
Frame rate : 0.221 FPS
Count of elements : 1338
Stream size : 45.7 KiB (0%)
Title : Finnish
Language : Finnish
Default : No
Forced : No

Text #10
ID : 12
Format : UTF-8
Codec ID : S_TEXT/UTF8
Codec ID/Info : UTF-8 Plain Text
Duration : 1 h 40 min
Bit rate : 78 b/s
Frame rate : 0.288 FPS
Count of elements : 1736
Stream size : 57.5 KiB (0%)
Title : Filipino
Language : Filipino
Default : No
Forced : No

Text #11
ID : 13
Format : UTF-8
Codec ID : S_TEXT/UTF8
Codec ID/Info : UTF-8 Plain Text
Duration : 1 h 40 min
Bit rate : 69 b/s
Frame rate : 0.276 FPS
Count of elements : 1667
Stream size : 51.5 KiB (0%)
Title : French
Language : French
Default : No
Forced : No

Text #12
ID : 14
Format : UTF-8
Codec ID : S_TEXT/UTF8
Codec ID/Info : UTF-8 Plain Text
Duration : 1 h 40 min
Bit rate : 125 b/s
Frame rate : 0.270 FPS
Count of elements : 1632
Stream size : 92.5 KiB (0%)
Title : Hebrew
Language : Hebrew
Default : No
Forced : No

Text #13
ID : 15
Format : UTF-8
Codec ID : S_TEXT/UTF8
Codec ID/Info : UTF-8 Plain Text
Duration : 1 h 40 min
Bit rate : 66 b/s
Frame rate : 0.267 FPS
Count of elements : 1613
Stream size : 48.8 KiB (0%)
Title : Croatian
Language : Croatian
Default : No
Forced : No

Text #14
ID : 16
Format : UTF-8
Codec ID : S_TEXT/UTF8
Codec ID/Info : UTF-8 Plain Text
Duration : 1 h 40 min
Bit rate : 71 b/s
Frame rate : 0.271 FPS
Count of elements : 1638
Stream size : 52.7 KiB (0%)
Title : Hungarian
Language : Hungarian
Default : No
Forced : No

Text #15
ID : 17
Format : UTF-8
Codec ID : S_TEXT/UTF8
Codec ID/Info : UTF-8 Plain Text
Duration : 1 h 40 min
Bit rate : 67 b/s
Frame rate : 0.270 FPS
Count of elements : 1629
Stream size : 49.7 KiB (0%)
Title : Indonesian
Language : Indonesian
Default : No
Forced : No

Text #16
ID : 18
Format : UTF-8
Codec ID : S_TEXT/UTF8
Codec ID/Info : UTF-8 Plain Text
Duration : 1 h 40 min
Bit rate : 66 b/s
Frame rate : 0.273 FPS
Count of elements : 1649
Stream size : 48.8 KiB (0%)
Title : Italian
Language : Italian
Default : No
Forced : No

Text #17
ID : 19
Format : UTF-8
Codec ID : S_TEXT/UTF8
Codec ID/Info : UTF-8 Plain Text
Duration : 1 h 40 min
Bit rate : 65 b/s
Frame rate : 0.319 FPS
Count of elements : 1927
Stream size : 48.5 KiB (0%)
Title : Japanese
Language : Japanese
Default : No
Forced : No

Text #18
ID : 20
Format : UTF-8
Codec ID : S_TEXT/UTF8
Codec ID/Info : UTF-8 Plain Text
Duration : 1 h 40 min
Bit rate : 92 b/s
Frame rate : 0.290 FPS
Count of elements : 1752
Stream size : 68.5 KiB (0%)
Title : Korean
Language : Korean
Default : No
Forced : No

Text #19
ID : 21
Format : UTF-8
Codec ID : S_TEXT/UTF8
Codec ID/Info : UTF-8 Plain Text
Duration : 1 h 40 min
Bit rate : 73 b/s
Frame rate : 0.290 FPS
Count of elements : 1753
Stream size : 54.3 KiB (0%)
Title : Malay
Language : Malay
Default : No
Forced : No

Text #20
ID : 22
Format : UTF-8
Codec ID : S_TEXT/UTF8
Codec ID/Info : UTF-8 Plain Text
Duration : 1 h 40 min
Bit rate : 66 b/s
Frame rate : 0.253 FPS
Count of elements : 1531
Stream size : 48.7 KiB (0%)
Title : Norwegian
Language : Norwegian Bokmal
Default : No
Forced : No

Text #21
ID : 23
Format : UTF-8
Codec ID : S_TEXT/UTF8
Codec ID/Info : UTF-8 Plain Text
Duration : 1 h 40 min
Bit rate : 68 b/s
Frame rate : 0.248 FPS
Count of elements : 1499
Stream size : 50.5 KiB (0%)
Title : Dutch
Language : Dutch
Default : No
Forced : No

Text #22
ID : 24
Format : UTF-8
Codec ID : S_TEXT/UTF8
Codec ID/Info : UTF-8 Plain Text
Duration : 1 h 40 min
Bit rate : 66 b/s
Frame rate : 0.284 FPS
Count of elements : 1717
Stream size : 48.9 KiB (0%)
Title : Polish
Language : Polish
Default : No
Forced : No

Text #23
ID : 25
Format : UTF-8
Codec ID : S_TEXT/UTF8
Codec ID/Info : UTF-8 Plain Text
Duration : 1 h 40 min
Bit rate : 66 b/s
Frame rate : 0.283 FPS
Count of elements : 1708
Stream size : 49.3 KiB (0%)
Title : Portuguese (Brazil)
Language : Portuguese
Default : No
Forced : No

Text #24
ID : 26
Format : UTF-8
Codec ID : S_TEXT/UTF8
Codec ID/Info : UTF-8 Plain Text
Duration : 1 h 40 min
Bit rate : 75 b/s
Frame rate : 0.286 FPS
Count of elements : 1726
Stream size : 55.5 KiB (0%)
Title : Portuguese (Portugal)
Language : Portuguese
Default : No
Forced : No

Text #25
ID : 27
Format : UTF-8
Codec ID : S_TEXT/UTF8
Codec ID/Info : UTF-8 Plain Text
Duration : 1 h 40 min
Bit rate : 71 b/s
Frame rate : 0.267 FPS
Count of elements : 1616
Stream size : 52.8 KiB (0%)
Title : Romanian
Language : Romanian
Default : No
Forced : No

Text #26
ID : 28
Format : UTF-8
Codec ID : S_TEXT/UTF8
Codec ID/Info : UTF-8 Plain Text
Duration : 1 h 40 min
Bit rate : 116 b/s
Frame rate : 0.279 FPS
Count of elements : 1682
Stream size : 86.0 KiB (0%)
Title : Russian
Language : Russian
Default : No
Forced : No

Text #27
ID : 29
Format : UTF-8
Codec ID : S_TEXT/UTF8
Codec ID/Info : UTF-8 Plain Text
Duration : 1 h 40 min
Bit rate : 71 b/s
Frame rate : 0.274 FPS
Count of elements : 1655
Stream size : 52.6 KiB (0%)
Title : Swedish
Language : Swedish
Default : No
Forced : No

Text #28
ID : 30
Format : UTF-8
Codec ID : S_TEXT/UTF8
Codec ID/Info : UTF-8 Plain Text
Duration : 1 h 40 min
Bit rate : 188 b/s
Frame rate : 0.294 FPS
Count of elements : 1778
Stream size : 139 KiB (0%)
Title : Thai
Language : Thai
Default : No
Forced : No

Text #29
ID : 31
Format : UTF-8
Codec ID : S_TEXT/UTF8
Codec ID/Info : UTF-8 Plain Text
Duration : 1 h 40 min
Bit rate : 67 b/s
Frame rate : 0.285 FPS
Count of elements : 1722
Stream size : 49.7 KiB (0%)
Title : Turkish
Language : Turkish
Default : No
Forced : No

Text #30
ID : 32
Format : UTF-8
Codec ID : S_TEXT/UTF8
Codec ID/Info : UTF-8 Plain Text
Duration : 1 h 40 min
Bit rate : 116 b/s
Frame rate : 0.284 FPS
Count of elements : 1715
Stream size : 86.1 KiB (0%)
Title : Ukrainian
Language : Ukrainian
Default : No
Forced : No

Text #31
ID : 33
Format : UTF-8
Codec ID : S_TEXT/UTF8
Codec ID/Info : UTF-8 Plain Text
Duration : 1 h 40 min
Bit rate : 94 b/s
Frame rate : 0.252 FPS
Count of elements : 1523
Stream size : 69.7 KiB (0%)
Title : Vietnamese
Language : Vietnamese
Default : No
Forced : No

Text #32
ID : 34
Format : UTF-8
Codec ID : S_TEXT/UTF8
Codec ID/Info : UTF-8 Plain Text
Duration : 1 h 40 min
Bit rate : 74 b/s
Frame rate : 0.293 FPS
Count of elements : 1767
Stream size : 55.1 KiB (0%)
Title : Simplified Chinese
Language : Chinese
Default : No
Forced : No

Text #33
ID : 35
Format : UTF-8
Codec ID : S_TEXT/UTF8
Codec ID/Info : UTF-8 Plain Text
Duration : 1 h 40 min
Bit rate : 67 b/s
Frame rate : 0.285 FPS
Count of elements : 1724
Stream size : 49.8 KiB (0%)
Title : Traditional Chinese
Language : Chinese
Default : No
Forced : No

Text #34
ID : 36
Format : UTF-8
Codec ID : S_TEXT/UTF8
Codec ID/Info : UTF-8 Plain Text
Duration : 1 h 41 min
Bit rate : 100 b/s
Frame rate : 0.326 FPS
Count of elements : 1974
Stream size : 74.5 KiB (0%)
Title : German (SDH)
Language : German
Default : No
Forced : No

Text #35
ID : 37
Format : UTF-8
Codec ID : S_TEXT/UTF8
Codec ID/Info : UTF-8 Plain Text
Duration : 1 h 34 min
Bit rate : 100 b/s
Frame rate : 0.353 FPS
Count of elements : 2006
Stream size : 69.8 KiB (0%)
Title : Spanish (Latin America) (SDH)
Language : Spanish
Default : No
Forced : No

Text #36
ID : 38
Format : UTF-8
Codec ID : S_TEXT/UTF8
Codec ID/Info : UTF-8 Plain Text
Duration : 1 h 41 min
Bit rate : 97 b/s
Frame rate : 0.326 FPS
Count of elements : 1976
Stream size : 72.2 KiB (0%)
Title : Spanish (Spain) (SDH)
Language : Spanish
Default : No
Forced : No

Text #37
ID : 39
Format : UTF-8
Codec ID : S_TEXT/UTF8
Codec ID/Info : UTF-8 Plain Text
Duration : 1 h 34 min
Bit rate : 112 b/s
Frame rate : 0.364 FPS
Count of elements : 2068
Stream size : 78.2 KiB (0%)
Title : French (SDH)
Language : French
Default : No
Forced : No

Text #38
ID : 40
Format : UTF-8
Codec ID : S_TEXT/UTF8
Codec ID/Info : UTF-8 Plain Text
Duration : 1 h 34 min
Bit rate : 95 b/s
Frame rate : 0.351 FPS
Count of elements : 1996
Stream size : 65.9 KiB (0%)
Title : Italian (SDH)
Language : Italian
Default : No
Forced : No

Text #39
ID : 41
Format : UTF-8
Codec ID : S_TEXT/UTF8
Codec ID/Info : UTF-8 Plain Text
Duration : 1 h 34 min
Bit rate : 93 b/s
Frame rate : 0.349 FPS
Count of elements : 1984
Stream size : 64.8 KiB (0%)
Title : Polish (SDH)
Language : Polish
Default : No
Forced : No

Text #40
ID : 42
Format : UTF-8
Codec ID : S_TEXT/UTF8
Codec ID/Info : UTF-8 Plain Text
Duration : 1 h 34 min
Bit rate : 106 b/s
Frame rate : 0.371 FPS
Count of elements : 2104
Stream size : 73.5 KiB (0%)
Title : Portuguese (Brazil) (SDH)
Language : Portuguese
Default : No
Forced : No

[collapse]
Download Link(s)

Download

Direct download files get automatically deleted after a month or so. Posted on : 12/01/2023

[collapse]
Magnet Link

Magnet

Family.Switch.2023.1080p.WEB.h264-EDITH.TGx-4.1 GB

[collapse]

Media information

General
Format : Matroska
Format version : Version 4
File size : 763 MiB
Duration : 1 h 45 min
Overall bit rate : 1 008 kb/s
Frame rate : 24.000 FPS
Movie name : Family.Switch.2023.720p.10bit.WEBRip.6CH.x265.HEVC

Video
ID : 1
Format : HEVC
Format/Info : High Efficiency Video Coding
Format profile : Main [email protected]@Main
Codec ID : V_MPEGH/ISO/HEVC
Duration : 1 h 45 min
Bit rate : 802 kb/s
Width : 1 280 pixels
Height : 536 pixels
Display aspect ratio : 2.40:1
Frame rate mode : Constant
Frame rate : 24.000 FPS
Color space : YUV
Chroma subsampling : 4:2:0
Bit depth : 10 bits
Bits/(Pixel*Frame) : 0.049
Stream size : 607 MiB (80%)
Default : Yes
Forced : No

Audio
ID : 2
Format : AAC LC SBR
Commercial name : HE-AAC
Format settings : Explicit
Codec ID : A_AAC-2
Duration : 1 h 41 min
Bit rate : 206 kb/s
Channel(s) : 6 channels
Channel layout : C L R Ls Rs LFE
Sampling rate : 48.0 kHz
Frame rate : 23.438 FPS (2048 SPF)
Compression mode : Lossy
Delay relative to video : 23 ms
Stream size : 150 MiB (20%)
Language : English
Default : Yes
Forced : No

Text #1
ID : 3
Format : UTF-8
Codec ID : S_TEXT/UTF8
Codec ID/Info : UTF-8 Plain Text
Duration : 1 h 34 min
Bit rate : 100 b/s
Frame rate : 0.356 FPS
Count of elements : 2023
Stream size : 69.4 KiB (0%)
Title : English (SDH)
Language : English
Default : Yes
Forced : No

Text #2
ID : 4
Format : UTF-8
Codec ID : S_TEXT/UTF8
Codec ID/Info : UTF-8 Plain Text
Duration : 1 h 40 min
Bit rate : 134 b/s
Frame rate : 0.294 FPS
Count of elements : 1775
Stream size : 98.9 KiB (0%)
Title : Arabic
Language : Arabic
Default : No
Forced : No

Text #3
ID : 5
Format : UTF-8
Codec ID : S_TEXT/UTF8
Codec ID/Info : UTF-8 Plain Text
Duration : 1 h 40 min
Bit rate : 69 b/s
Frame rate : 0.271 FPS
Count of elements : 1637
Stream size : 50.9 KiB (0%)
Title : Czech
Language : Czech
Default : No
Forced : No

Text #4
ID : 6
Format : UTF-8
Codec ID : S_TEXT/UTF8
Codec ID/Info : UTF-8 Plain Text
Duration : 1 h 40 min
Bit rate : 66 b/s
Frame rate : 0.263 FPS
Count of elements : 1588
Stream size : 48.8 KiB (0%)
Title : Danish
Language : Danish
Default : No
Forced : No

Text #5
ID : 7
Format : UTF-8
Codec ID : S_TEXT/UTF8
Codec ID/Info : UTF-8 Plain Text
Duration : 1 h 40 min
Bit rate : 68 b/s
Frame rate : 0.280 FPS
Count of elements : 1692
Stream size : 50.7 KiB (0%)
Title : German
Language : German
Default : No
Forced : No

Text #6
ID : 8
Format : UTF-8
Codec ID : S_TEXT/UTF8
Codec ID/Info : UTF-8 Plain Text
Duration : 1 h 40 min
Bit rate : 120 b/s
Frame rate : 0.274 FPS
Count of elements : 1656
Stream size : 88.8 KiB (0%)
Title : Greek
Language : Greek
Default : No
Forced : No

Text #7
ID : 9
Format : UTF-8
Codec ID : S_TEXT/UTF8
Codec ID/Info : UTF-8 Plain Text
Duration : 1 h 40 min
Bit rate : 70 b/s
Frame rate : 0.270 FPS
Count of elements : 1630
Stream size : 51.8 KiB (0%)
Title : Spanish (Latin America)
Language : Spanish
Default : No
Forced : No

Text #8
ID : 10
Format : UTF-8
Codec ID : S_TEXT/UTF8
Codec ID/Info : UTF-8 Plain Text
Duration : 1 h 40 min
Bit rate : 68 b/s
Frame rate : 0.263 FPS
Count of elements : 1587
Stream size : 50.8 KiB (0%)
Title : Spanish (Spain)
Language : Spanish
Default : No
Forced : No

Text #9
ID : 11
Format : UTF-8
Codec ID : S_TEXT/UTF8
Codec ID/Info : UTF-8 Plain Text
Duration : 1 h 40 min
Bit rate : 61 b/s
Frame rate : 0.221 FPS
Count of elements : 1338
Stream size : 45.7 KiB (0%)
Title : Finnish
Language : Finnish
Default : No
Forced : No

Text #10
ID : 12
Format : UTF-8
Codec ID : S_TEXT/UTF8
Codec ID/Info : UTF-8 Plain Text
Duration : 1 h 40 min
Bit rate : 78 b/s
Frame rate : 0.288 FPS
Count of elements : 1736
Stream size : 57.5 KiB (0%)
Title : Filipino
Language : Filipino
Default : No
Forced : No

Text #11
ID : 13
Format : UTF-8
Codec ID : S_TEXT/UTF8
Codec ID/Info : UTF-8 Plain Text
Duration : 1 h 40 min
Bit rate : 69 b/s
Frame rate : 0.276 FPS
Count of elements : 1667
Stream size : 51.5 KiB (0%)
Title : French
Language : French
Default : No
Forced : No

Text #12
ID : 14
Format : UTF-8
Codec ID : S_TEXT/UTF8
Codec ID/Info : UTF-8 Plain Text
Duration : 1 h 40 min
Bit rate : 125 b/s
Frame rate : 0.270 FPS
Count of elements : 1632
Stream size : 92.5 KiB (0%)
Title : Hebrew
Language : Hebrew
Default : No
Forced : No

Text #13
ID : 15
Format : UTF-8
Codec ID : S_TEXT/UTF8
Codec ID/Info : UTF-8 Plain Text
Duration : 1 h 40 min
Bit rate : 66 b/s
Frame rate : 0.267 FPS
Count of elements : 1613
Stream size : 48.8 KiB (0%)
Title : Croatian
Language : Croatian
Default : No
Forced : No

Text #14
ID : 16
Format : UTF-8
Codec ID : S_TEXT/UTF8
Codec ID/Info : UTF-8 Plain Text
Duration : 1 h 40 min
Bit rate : 71 b/s
Frame rate : 0.271 FPS
Count of elements : 1638
Stream size : 52.7 KiB (0%)
Title : Hungarian
Language : Hungarian
Default : No
Forced : No

Text #15
ID : 17
Format : UTF-8
Codec ID : S_TEXT/UTF8
Codec ID/Info : UTF-8 Plain Text
Duration : 1 h 40 min
Bit rate : 67 b/s
Frame rate : 0.270 FPS
Count of elements : 1629
Stream size : 49.7 KiB (0%)
Title : Indonesian
Language : Indonesian
Default : No
Forced : No

Text #16
ID : 18
Format : UTF-8
Codec ID : S_TEXT/UTF8
Codec ID/Info : UTF-8 Plain Text
Duration : 1 h 40 min
Bit rate : 66 b/s
Frame rate : 0.273 FPS
Count of elements : 1649
Stream size : 48.8 KiB (0%)
Title : Italian
Language : Italian
Default : No
Forced : No

Text #17
ID : 19
Format : UTF-8
Codec ID : S_TEXT/UTF8
Codec ID/Info : UTF-8 Plain Text
Duration : 1 h 40 min
Bit rate : 65 b/s
Frame rate : 0.319 FPS
Count of elements : 1927
Stream size : 48.5 KiB (0%)
Title : Japanese
Language : Japanese
Default : No
Forced : No

Text #18
ID : 20
Format : UTF-8
Codec ID : S_TEXT/UTF8
Codec ID/Info : UTF-8 Plain Text
Duration : 1 h 40 min
Bit rate : 92 b/s
Frame rate : 0.290 FPS
Count of elements : 1752
Stream size : 68.5 KiB (0%)
Title : Korean
Language : Korean
Default : No
Forced : No

Text #19
ID : 21
Format : UTF-8
Codec ID : S_TEXT/UTF8
Codec ID/Info : UTF-8 Plain Text
Duration : 1 h 40 min
Bit rate : 73 b/s
Frame rate : 0.290 FPS
Count of elements : 1753
Stream size : 54.3 KiB (0%)
Title : Malay
Language : Malay
Default : No
Forced : No

Text #20
ID : 22
Format : UTF-8
Codec ID : S_TEXT/UTF8
Codec ID/Info : UTF-8 Plain Text
Duration : 1 h 40 min
Bit rate : 66 b/s
Frame rate : 0.253 FPS
Count of elements : 1531
Stream size : 48.7 KiB (0%)
Title : Norwegian
Language : Norwegian Bokmal
Default : No
Forced : No

Text #21
ID : 23
Format : UTF-8
Codec ID : S_TEXT/UTF8
Codec ID/Info : UTF-8 Plain Text
Duration : 1 h 40 min
Bit rate : 68 b/s
Frame rate : 0.248 FPS
Count of elements : 1499
Stream size : 50.5 KiB (0%)
Title : Dutch
Language : Dutch
Default : No
Forced : No

Text #22
ID : 24
Format : UTF-8
Codec ID : S_TEXT/UTF8
Codec ID/Info : UTF-8 Plain Text
Duration : 1 h 40 min
Bit rate : 66 b/s
Frame rate : 0.284 FPS
Count of elements : 1717
Stream size : 48.9 KiB (0%)
Title : Polish
Language : Polish
Default : No
Forced : No

Text #23
ID : 25
Format : UTF-8
Codec ID : S_TEXT/UTF8
Codec ID/Info : UTF-8 Plain Text
Duration : 1 h 40 min
Bit rate : 66 b/s
Frame rate : 0.283 FPS
Count of elements : 1708
Stream size : 49.3 KiB (0%)
Title : Portuguese (Brazil)
Language : Portuguese
Default : No
Forced : No

Text #24
ID : 26
Format : UTF-8
Codec ID : S_TEXT/UTF8
Codec ID/Info : UTF-8 Plain Text
Duration : 1 h 40 min
Bit rate : 75 b/s
Frame rate : 0.286 FPS
Count of elements : 1726
Stream size : 55.5 KiB (0%)
Title : Portuguese (Portugal)
Language : Portuguese
Default : No
Forced : No

Text #25
ID : 27
Format : UTF-8
Codec ID : S_TEXT/UTF8
Codec ID/Info : UTF-8 Plain Text
Duration : 1 h 40 min
Bit rate : 71 b/s
Frame rate : 0.267 FPS
Count of elements : 1616
Stream size : 52.8 KiB (0%)
Title : Romanian
Language : Romanian
Default : No
Forced : No

Text #26
ID : 28
Format : UTF-8
Codec ID : S_TEXT/UTF8
Codec ID/Info : UTF-8 Plain Text
Duration : 1 h 40 min
Bit rate : 116 b/s
Frame rate : 0.279 FPS
Count of elements : 1682
Stream size : 86.0 KiB (0%)
Title : Russian
Language : Russian
Default : No
Forced : No

Text #27
ID : 29
Format : UTF-8
Codec ID : S_TEXT/UTF8
Codec ID/Info : UTF-8 Plain Text
Duration : 1 h 40 min
Bit rate : 71 b/s
Frame rate : 0.274 FPS
Count of elements : 1655
Stream size : 52.6 KiB (0%)
Title : Swedish
Language : Swedish
Default : No
Forced : No

Text #28
ID : 30
Format : UTF-8
Codec ID : S_TEXT/UTF8
Codec ID/Info : UTF-8 Plain Text
Duration : 1 h 40 min
Bit rate : 188 b/s
Frame rate : 0.294 FPS
Count of elements : 1778
Stream size : 139 KiB (0%)
Title : Thai
Language : Thai
Default : No
Forced : No

Text #29
ID : 31
Format : UTF-8
Codec ID : S_TEXT/UTF8
Codec ID/Info : UTF-8 Plain Text
Duration : 1 h 40 min
Bit rate : 67 b/s
Frame rate : 0.285 FPS
Count of elements : 1722
Stream size : 49.7 KiB (0%)
Title : Turkish
Language : Turkish
Default : No
Forced : No

Text #30
ID : 32
Format : UTF-8
Codec ID : S_TEXT/UTF8
Codec ID/Info : UTF-8 Plain Text
Duration : 1 h 40 min
Bit rate : 116 b/s
Frame rate : 0.284 FPS
Count of elements : 1715
Stream size : 86.1 KiB (0%)
Title : Ukrainian
Language : Ukrainian
Default : No
Forced : No

Text #31
ID : 33
Format : UTF-8
Codec ID : S_TEXT/UTF8
Codec ID/Info : UTF-8 Plain Text
Duration : 1 h 40 min
Bit rate : 94 b/s
Frame rate : 0.252 FPS
Count of elements : 1523
Stream size : 69.7 KiB (0%)
Title : Vietnamese
Language : Vietnamese
Default : No
Forced : No

Text #32
ID : 34
Format : UTF-8
Codec ID : S_TEXT/UTF8
Codec ID/Info : UTF-8 Plain Text
Duration : 1 h 40 min
Bit rate : 74 b/s
Frame rate : 0.293 FPS
Count of elements : 1767
Stream size : 55.1 KiB (0%)
Title : Simplified Chinese
Language : Chinese
Default : No
Forced : No

Text #33
ID : 35
Format : UTF-8
Codec ID : S_TEXT/UTF8
Codec ID/Info : UTF-8 Plain Text
Duration : 1 h 40 min
Bit rate : 67 b/s
Frame rate : 0.285 FPS
Count of elements : 1724
Stream size : 49.8 KiB (0%)
Title : Traditional Chinese
Language : Chinese
Default : No
Forced : No

Text #34
ID : 36
Format : UTF-8
Codec ID : S_TEXT/UTF8
Codec ID/Info : UTF-8 Plain Text
Duration : 1 h 41 min
Bit rate : 100 b/s
Frame rate : 0.326 FPS
Count of elements : 1974
Stream size : 74.5 KiB (0%)
Title : German (SDH)
Language : German
Default : No
Forced : No

Text #35
ID : 37
Format : UTF-8
Codec ID : S_TEXT/UTF8
Codec ID/Info : UTF-8 Plain Text
Duration : 1 h 34 min
Bit rate : 100 b/s
Frame rate : 0.353 FPS
Count of elements : 2006
Stream size : 69.8 KiB (0%)
Title : Spanish (Latin America) (SDH)
Language : Spanish
Default : No
Forced : No

Text #36
ID : 38
Format : UTF-8
Codec ID : S_TEXT/UTF8
Codec ID/Info : UTF-8 Plain Text
Duration : 1 h 41 min
Bit rate : 97 b/s
Frame rate : 0.326 FPS
Count of elements : 1976
Stream size : 72.2 KiB (0%)
Title : Spanish (Spain) (SDH)
Language : Spanish
Default : No
Forced : No

Text #37
ID : 39
Format : UTF-8
Codec ID : S_TEXT/UTF8
Codec ID/Info : UTF-8 Plain Text
Duration : 1 h 34 min
Bit rate : 112 b/s
Frame rate : 0.364 FPS
Count of elements : 2068
Stream size : 78.2 KiB (0%)
Title : French (SDH)
Language : French
Default : No
Forced : No

Text #38
ID : 40
Format : UTF-8
Codec ID : S_TEXT/UTF8
Codec ID/Info : UTF-8 Plain Text
Duration : 1 h 34 min
Bit rate : 95 b/s
Frame rate : 0.351 FPS
Count of elements : 1996
Stream size : 65.9 KiB (0%)
Title : Italian (SDH)
Language : Italian
Default : No
Forced : No

Text #39
ID : 41
Format : UTF-8
Codec ID : S_TEXT/UTF8
Codec ID/Info : UTF-8 Plain Text
Duration : 1 h 34 min
Bit rate : 93 b/s
Frame rate : 0.349 FPS
Count of elements : 1984
Stream size : 64.8 KiB (0%)
Title : Polish (SDH)
Language : Polish
Default : No
Forced : No

Text #40
ID : 42
Format : UTF-8
Codec ID : S_TEXT/UTF8
Codec ID/Info : UTF-8 Plain Text
Duration : 1 h 34 min
Bit rate : 106 b/s
Frame rate : 0.371 FPS
Count of elements : 2104
Stream size : 73.5 KiB (0%)
Title : Portuguese (Brazil) (SDH)
Language : Portuguese
Default : No
Forced : No

[collapse]
Download Link(s)

Download

Direct download files get automatically deleted after a month or so. Posted on : 12/01/2023

[collapse]
Magnet Link

Magnet

Family.Switch.2023.1080p.WEB.h264-EDITH.TGx-4.1 GB

[collapse]

You may also like...

error: nah :p~