Face/Off (1997)

R | 2h 18min | Action, Crime, Sci-Fi

To foil a terrorist plot, FBI agent Sean Archer assumes the identity of the criminal Castor Troy who murdered his son through facial transplant surgery, but the crook wakes up prematurely and vows revenge.

Watch trailer

Media information

General
Format : Matroska
Format version : Version 4
File size : 2.63 GiB
Duration : 2 h 18 min
Overall bit rate : 2 708 kb/s
Frame rate : 23.976 FPS
Movie name : Face-Off.1997.CE.1080p.10bit.BluRay.7CH.x265.HEVC

Video
ID : 1
Format : HEVC
Format/Info : High Efficiency Video Coding
Format profile : Main 10@L4@Main
Codec ID : V_MPEGH/ISO/HEVC
Duration : 2 h 18 min
Bit rate : 2 370 kb/s
Width : 1 920 pixels
Height : 820 pixels
Display aspect ratio : 2.35:1
Frame rate mode : Constant
Frame rate : 23.976 (24000/1001) FPS
Color space : YUV
Chroma subsampling : 4:2:0 (Type 0)
Bit depth : 10 bits
Bits/(Pixel*Frame) : 0.063
Stream size : 2.30 GiB (87%)
Default : Yes
Forced : No
Color range : Limited

Audio
ID : 2
Format : AAC LC
Codec ID : A_AAC-2
Duration : 2 h 18 min
Bit rate : 336 kb/s
Channel(s) : 7 channels
Channel layout : L R C Cb Lb Rb Cb
Sampling rate : 48.0 kHz
Frame rate : 46.875 FPS (1024 SPF)
Compression mode : Lossy
Delay relative to video : 20 ms
Stream size : 334 MiB (12%)
Language : English
Default : Yes
Forced : No

Text
ID : 3
Format : UTF-8
Codec ID : S_TEXT/UTF8
Codec ID/Info : UTF-8 Plain Text
Duration : 2 h 13 min
Bit rate : 37 b/s
Frame rate : 0.170 FPS
Count of elements : 1363
Stream size : 36.9 KiB (0%)
Language : English
Default : Yes
Forced : No

[collapse]
Download Link(s)

Download

Direct download files get automatically deleted after a month or so. Posted on : 05/06/2024

[collapse]
Magnet Link

Magnet

Face.Off.1997.CE.1080p.BluRay.x265.HEVC.10bit.AAC.6.1.Tigole.QxR-5.8 GB

[collapse]

Media information

General
Format : Matroska
Format version : Version 4
File size : 1.32 GiB
Duration : 2 h 18 min
Overall bit rate : 1 364 kb/s
Frame rate : 23.976 FPS
Movie name : Face-Off.1997.CE.720p.10bit.BluRay.7CH.x265.HEVC

Video
ID : 1
Format : HEVC
Format/Info : High Efficiency Video Coding
Format profile : Main [email protected]@Main
Codec ID : V_MPEGH/ISO/HEVC
Duration : 2 h 18 min
Bit rate : 1 137 kb/s
Width : 1 280 pixels
Height : 544 pixels
Display aspect ratio : 2.35:1
Frame rate mode : Constant
Frame rate : 23.976 (24000/1001) FPS
Color space : YUV
Chroma subsampling : 4:2:0 (Type 0)
Bit depth : 10 bits
Bits/(Pixel*Frame) : 0.068
Stream size : 1.10 GiB (83%)
Default : Yes
Forced : No
Color range : Limited

Audio
ID : 2
Format : AAC LC
Codec ID : A_AAC-2
Duration : 2 h 18 min
Bit rate : 225 kb/s
Channel(s) : 7 channels
Channel layout : L R C Cb Lb Rb Cb
Sampling rate : 48.0 kHz
Frame rate : 46.875 FPS (1024 SPF)
Compression mode : Lossy
Delay relative to video : 20 ms
Stream size : 223 MiB (16%)
Language : English
Default : Yes
Forced : No

Text
ID : 3
Format : UTF-8
Codec ID : S_TEXT/UTF8
Codec ID/Info : UTF-8 Plain Text
Duration : 2 h 13 min
Bit rate : 37 b/s
Frame rate : 0.170 FPS
Count of elements : 1363
Stream size : 36.9 KiB (0%)
Language : English
Default : Yes
Forced : No

[collapse]
Download Link(s)

Download

Direct download files get automatically deleted after a month or so. Posted on : 05/06/2024

[collapse]
Magnet Link

Magnet

Face.Off.1997.CE.1080p.BluRay.x265.HEVC.10bit.AAC.6.1.Tigole.QxR-5.8 GB

[collapse]

You may also like...

error: nah :p~