EuroTrip (2004)

R | 1h 32min | Adventure, Comedy | 20 February 2004 (USA)

Dumped by his girlfriend, a high school grad decides to embark on an overseas adventure in Europe with his friends.

Watch trailer

Media information

General
Format : Matroska
Format version : Version 4
File size : 866 MiB
Duration : 1 h 30 min
Overall bit rate : 1 343 kb/s
Movie name : Eurotrip.2004.720p.10bit.BluRay.6CH.x265.HEVC
Encoded date : UTC 2019-07-24 21:53:42
Writing application : mkvmerge v35.0.0 (‘All The Love In The World’) 32-bit
Writing library : libebml v1.3.9 + libmatroska v1.5.2

Video
ID : 1
Format : HEVC
Format/Info : High Efficiency Video Coding
Format profile : Main [email protected]@Main
Codec ID : V_MPEGH/ISO/HEVC
Duration : 1 h 30 min
Bit rate : 1 151 kb/s
Width : 1 280 pixels
Height : 720 pixels
Display aspect ratio : 16:9
Frame rate mode : Constant
Frame rate : 23.976 (24000/1001) FPS
Color space : YUV
Chroma subsampling : 4:2:0
Bit depth : 10 bits
Bits/(Pixel*Frame) : 0.052
Stream size : 742 MiB (86%)
Default : Yes
Forced : No

Audio
ID : 2
Format : AAC LC SBR
Commercial name : HE-AAC
Format settings : Explicit
Codec ID : A_AAC-2
Duration : 1 h 30 min
Bit rate : 192 kb/s
Channel(s) : 6 channels
Channel layout : C L R Ls Rs LFE
Sampling rate : 48.0 kHz
Frame rate : 23.438 FPS (2048 SPF)
Compression mode : Lossy
Delay relative to video : 23 ms
Stream size : 123 MiB (14%)
Language : English
Default : Yes
Forced : No

Text
ID : 3
Format : UTF-8
Codec ID : S_TEXT/UTF8
Codec ID/Info : UTF-8 Plain Text
Duration : 1 h 27 min
Bit rate : 62 b/s
Count of elements : 1198
Stream size : 40.1 KiB (0%)
Language : English
Default : Yes
Forced : No

[collapse]
Download Link(s)

Download

Direct download files get automatically deleted after a month or so. Posted on : 07/25/2019

[collapse]
Magnet Link

Magnet

Eurotrip.2004.1080p.BluRay.x264-HD4U-6.56 GB

[collapse]

You may also like...

error: nah :p~