Earthgeist The Movie – A World Divided

1 h 26 min 2019

Filmmaker Tim Crawford looks at a World Divided and the defining spirit of the ideas and events now affecting our world. Global Warming, Deforestation, Biodiversity, Population, Plastic Pollution, the Oceans, Melting of the Polar Caps, Farming, Energy, Drinking Water and Irrigation, Child Activists, all these topics and more are now part of the Global consciousness. This is Earthgeist.

Watch trailer

Media information

General
Format : Matroska
Format version : Version 4
File size : 632 MiB
Duration : 1 h 26 min
Overall bit rate : 1 023 kb/s
Movie name : Earthgeist.The.Movie.A.World.Divided.2019.720p.10bit.WEB-DL.2CH.x265.HEVC

Video
ID : 1
Format : HEVC
Format/Info : High Efficiency Video Coding
Format profile : Main [email protected]@Main
Codec ID : V_MPEGH/ISO/HEVC
Duration : 1 h 26 min
Bit rate : 895 kb/s
Width : 1 280 pixels
Height : 720 pixels
Display aspect ratio : 16:9
Frame rate mode : Constant
Frame rate : 29.970 (30000/1001) FPS
Color space : YUV
Chroma subsampling : 4:2:0
Bit depth : 10 bits
Bits/(Pixel*Frame) : 0.032
Stream size : 553 MiB (87%)
Default : Yes
Forced : No
Color range : Limited
Color primaries : BT.709
Transfer characteristics : BT.709
Matrix coefficients : BT.709

Audio
ID : 2
Format : AAC LC
Codec ID : A_AAC-2
Duration : 1 h 26 min
Bit rate : 125 kb/s
Channel(s) : 2 channels
Channel layout : L R
Sampling rate : 48.0 kHz
Frame rate : 46.875 FPS (1024 SPF)
Compression mode : Lossy
Delay relative to video : -21 ms
Stream size : 77.3 MiB (12%)
Language : English
Default : Yes
Forced : No

Text
ID : 3
Format : UTF-8
Codec ID : S_TEXT/UTF8
Codec ID/Info : UTF-8 Plain Text
Duration : 1 h 25 min
Bit rate : 99 b/s
Count of elements : 1526
Stream size : 62.3 KiB (0%)
Language : English
Default : Yes
Forced : No

[collapse]
Download Link(s)

Download

Direct download files get automatically deleted after a month or so. Posted on : 04/08/2021

[collapse]
Magnet Link

Magnet

Earthgeist.The.Movie.A.World.Divided.2019.1080p.WEB.DL.x264.An0mal1-3.9 GB

[collapse]

You may also like...

error: nah :p~