Drive (2019)

Not Rated | 2h 27min | Action, Thriller | 1 November 2019 (India)

A stunt driver gets attracted to his neighbour and is drawn into a dangerous underworld.

Watch trailer

Media information

General
Format : Matroska
Format version : Version 4
File size : 1.02 GiB
Duration : 1 h 59 min
Overall bit rate : 1 223 kb/s
Movie name : Drive.2019.Hindi.720p.WEB-DL.2CH.x264.AVC
Encoded date : UTC 2019-11-02 21:38:33
Writing application : mkvmerge v38.0.0 (‘The Silent Type’) 32-bit
Writing library : libebml v1.3.9 + libmatroska v1.5.2

Video
ID : 1
Format : AVC
Format/Info : Advanced Video Codec
Format profile : High@L4
Format settings : CABAC / 4 Ref Frames
Format settings, CABAC : Yes
Format settings, Reference frames : 4 frames
Codec ID : V_MPEG4/ISO/AVC
Duration : 1 h 59 min
Bit rate : 1 100 kb/s
Width : 1 280 pixels
Height : 544 pixels
Display aspect ratio : 2.35:1
Frame rate mode : Constant
Frame rate : 23.976 (24000/1001) FPS
Color space : YUV
Chroma subsampling : 4:2:0
Bit depth : 8 bits
Scan type : Progressive
Bits/(Pixel*Frame) : 0.066
Stream size : 930 MiB (89%)
Default : Yes
Forced : No
Color range : Limited
Color primaries : BT.709
Transfer characteristics : BT.709
Matrix coefficients : BT.709

Audio
ID : 2
Format : AAC LC
Codec ID : A_AAC-2
Duration : 1 h 59 min
Bit rate : 125 kb/s
Channel(s) : 2 channels
Channel layout : L R
Sampling rate : 48.0 kHz
Frame rate : 46.875 FPS (1024 SPF)
Compression mode : Lossy
Delay relative to video : -21 ms
Stream size : 107 MiB (10%)
Language : Hindi
Default : Yes
Forced : No

Text #1
ID : 3
Format : ASS
Codec ID : S_TEXT/ASS
Duration : 1 h 51 min
Bit rate : 79 b/s
Count of elements : 1221
Compression mode : Lossless
Stream size : 65.2 KiB (0%)
Language : English
Default : No
Forced : No

Text #2
ID : 4
Format : ASS
Codec ID : S_TEXT/ASS
Duration : 1 h 48 min
Bit rate : 27 b/s
Count of elements : 346
Compression mode : Lossless
Stream size : 21.7 KiB (0%)
Language : English
Default : No
Forced : No

Text #3
ID : 5
Format : ASS
Codec ID : S_TEXT/ASS
Duration : 1 h 52 min
Bit rate : 109 b/s
Count of elements : 1371
Compression mode : Lossless
Stream size : 90.3 KiB (0%)
Language : Russian
Default : No
Forced : No

Text #4
ID : 6
Format : ASS
Codec ID : S_TEXT/ASS
Duration : 1 h 52 min
Bit rate : 84 b/s
Count of elements : 1268
Compression mode : Lossless
Stream size : 69.8 KiB (0%)
Language : Chinese
Default : No
Forced : No

Text #5
ID : 7
Format : ASS
Codec ID : S_TEXT/ASS
Duration : 1 h 52 min
Bit rate : 75 b/s
Count of elements : 1262
Compression mode : Lossless
Stream size : 62.4 KiB (0%)
Language : German
Default : No
Forced : No

Text #6
ID : 8
Format : ASS
Codec ID : S_TEXT/ASS
Duration : 1 h 52 min
Bit rate : 73 b/s
Count of elements : 1149
Compression mode : Lossless
Stream size : 61.0 KiB (0%)
Language : Dutch
Default : No
Forced : No

Text #7
ID : 9
Format : ASS
Codec ID : S_TEXT/ASS
Duration : 1 h 52 min
Bit rate : 77 b/s
Count of elements : 1263
Compression mode : Lossless
Stream size : 63.6 KiB (0%)
Language : Italian
Default : No
Forced : No

Text #8
ID : 10
Format : ASS
Codec ID : S_TEXT/ASS
Duration : 1 h 52 min
Bit rate : 68 b/s
Count of elements : 1032
Compression mode : Lossless
Stream size : 56.5 KiB (0%)
Language : Finnish
Default : No
Forced : No

Text #9
ID : 11
Format : ASS
Codec ID : S_TEXT/ASS
Duration : 1 h 52 min
Bit rate : 73 b/s
Count of elements : 1258
Compression mode : Lossless
Stream size : 60.4 KiB (0%)
Language : Hungarian
Default : No
Forced : No

Text #10
ID : 12
Format : ASS
Codec ID : S_TEXT/ASS
Duration : 1 h 52 min
Bit rate : 111 b/s
Count of elements : 1265
Compression mode : Lossless
Stream size : 91.9 KiB (0%)
Language : Arabic
Default : No
Forced : No

Text #11
ID : 13
Format : ASS
Codec ID : S_TEXT/ASS
Duration : 1 h 52 min
Bit rate : 110 b/s
Count of elements : 1255
Compression mode : Lossless
Stream size : 90.9 KiB (0%)
Language : Greek
Default : No
Forced : No

Text #12
ID : 14
Format : ASS
Codec ID : S_TEXT/ASS
Duration : 1 h 52 min
Bit rate : 154 b/s
Count of elements : 1268
Compression mode : Lossless
Stream size : 127 KiB (0%)
Language : Thai
Default : No
Forced : No

Text #13
ID : 15
Format : ASS
Codec ID : S_TEXT/ASS
Duration : 1 h 52 min
Bit rate : 75 b/s
Count of elements : 1264
Compression mode : Lossless
Stream size : 62.0 KiB (0%)
Language : Czech
Default : No
Forced : No

Text #14
ID : 16
Format : ASS
Codec ID : S_TEXT/ASS
Duration : 1 h 52 min
Bit rate : 81 b/s
Count of elements : 1262
Compression mode : Lossless
Stream size : 66.8 KiB (0%)
Language : Spanish
Default : No
Forced : No

Text #15
ID : 17
Format : ASS
Codec ID : S_TEXT/ASS
Duration : 1 h 52 min
Bit rate : 75 b/s
Count of elements : 1268
Compression mode : Lossless
Stream size : 62.0 KiB (0%)
Language : Portuguese
Default : No
Forced : No

Text #16
ID : 18
Format : ASS
Codec ID : S_TEXT/ASS
Duration : 1 h 57 min
Bit rate : 76 b/s
Count of elements : 1257
Compression mode : Lossless
Stream size : 66.3 KiB (0%)
Language : Spanish
Default : No
Forced : No

Text #17
ID : 19
Format : ASS
Codec ID : S_TEXT/ASS
Duration : 1 h 52 min
Bit rate : 104 b/s
Count of elements : 1271
Compression mode : Lossless
Stream size : 85.8 KiB (0%)
Language : Hebrew
Default : No
Forced : No

Text #18
ID : 20
Format : ASS
Codec ID : S_TEXT/ASS
Duration : 1 h 52 min
Bit rate : 83 b/s
Count of elements : 1285
Compression mode : Lossless
Stream size : 68.5 KiB (0%)
Language : Turkish
Default : No
Forced : No

Text #19
ID : 21
Format : ASS
Codec ID : S_TEXT/ASS
Duration : 1 h 52 min
Bit rate : 77 b/s
Count of elements : 1262
Compression mode : Lossless
Stream size : 64.2 KiB (0%)
Language : Portuguese
Default : No
Forced : No

Text #20
ID : 22
Format : ASS
Codec ID : S_TEXT/ASS
Duration : 1 h 52 min
Bit rate : 92 b/s
Count of elements : 1263
Compression mode : Lossless
Stream size : 76.4 KiB (0%)
Language : Korean
Default : No
Forced : No

Text #21
ID : 23
Format : ASS
Codec ID : S_TEXT/ASS
Duration : 1 h 52 min
Bit rate : 79 b/s
Count of elements : 1252
Compression mode : Lossless
Stream size : 65.2 KiB (0%)
Language : Romanian
Default : No
Forced : No

Text #22
ID : 24
Format : ASS
Codec ID : S_TEXT/ASS
Duration : 1 h 52 min
Bit rate : 101 b/s
Count of elements : 1267
Compression mode : Lossless
Stream size : 83.6 KiB (0%)
Language : Vietnamese
Default : No
Forced : No

Text #23
ID : 25
Format : ASS
Codec ID : S_TEXT/ASS
Duration : 1 h 52 min
Bit rate : 87 b/s
Count of elements : 1268
Compression mode : Lossless
Stream size : 71.7 KiB (0%)
Language : Chinese
Default : No
Forced : No

Text #24
ID : 26
Format : ASS
Codec ID : S_TEXT/ASS
Duration : 1 h 52 min
Bit rate : 74 b/s
Count of elements : 1235
Compression mode : Lossless
Stream size : 61.4 KiB (0%)
Language : Japanese
Default : No
Forced : No

Text #25
ID : 27
Format : ASS
Codec ID : S_TEXT/ASS
Duration : 1 h 52 min
Bit rate : 72 b/s
Count of elements : 1028
Compression mode : Lossless
Stream size : 59.7 KiB (0%)
Language : Swedish
Default : No
Forced : No

Text #26
ID : 28
Format : ASS
Codec ID : S_TEXT/ASS
Duration : 1 h 52 min
Bit rate : 76 b/s
Count of elements : 1260
Compression mode : Lossless
Stream size : 63.1 KiB (0%)
Language : Polish
Default : No
Forced : No

Text #27
ID : 29
Format : ASS
Codec ID : S_TEXT/ASS
Duration : 1 h 52 min
Bit rate : 73 b/s
Count of elements : 1026
Compression mode : Lossless
Stream size : 60.5 KiB (0%)
Language : Norwegian
Default : No
Forced : No

Text #28
ID : 30
Format : ASS
Codec ID : S_TEXT/ASS
Duration : 1 h 52 min
Bit rate : 80 b/s
Count of elements : 1263
Compression mode : Lossless
Stream size : 66.1 KiB (0%)
Language : French
Default : No
Forced : No

Text #29
ID : 31
Format : ASS
Codec ID : S_TEXT/ASS
Duration : 1 h 52 min
Bit rate : 80 b/s
Count of elements : 1262
Compression mode : Lossless
Stream size : 66.3 KiB (0%)
Language : Indonesian
Default : No
Forced : No

Text #30
ID : 32
Format : ASS
Codec ID : S_TEXT/ASS
Duration : 1 h 52 min
Bit rate : 70 b/s
Count of elements : 1030
Compression mode : Lossless
Stream size : 58.3 KiB (0%)
Language : Danish
Default : No
Forced : No

Text #31
ID : 33
Format : ASS
Codec ID : S_TEXT/ASS
Duration : 1 h 52 min
Bit rate : 182 b/s
Count of elements : 1472
Compression mode : Lossless
Stream size : 150 KiB (0%)
Language : Hindi
Default : No
Forced : No

[collapse]
Download Link(s)

Download

Direct download files get automatically deleted after a month or so. Posted on : 11/03/2019

[collapse]
Magnet Link

Magnet

Drive (2019) 1080p UntoucheD WEB HD NetfliX – AVC – DDP 5.1-2.3 GB

[collapse]

You may also like...

error: nah :p~
cosia UTC:2) -->