Die Hart 2: Die Harter (2024)

Original title: Die Hart: Die Harter | 1h 32min | Action

Hart plans an innovative action film with unscripted, unexpected scenes to cement his legacy as the greatest. However, a blind spot leads him to fall victim to a vengeful plot from his past.

Watch trailer

Media information

General
Format : Matroska
Format version : Version 4
File size : 1.24 GiB
Duration : 1 h 32 min
Overall bit rate : 1 912 kb/s
Frame rate : 23.976 FPS
Movie name : Die.Hart.2.Die.Harter.2024.1080p.10bit.WEBRip.6CH.x265.HEVC

Video
ID : 1
Format : HEVC
Format/Info : High Efficiency Video Coding
Format profile : Main 10@L4@Main
Codec ID : V_MPEGH/ISO/HEVC
Duration : 1 h 32 min
Bit rate : 1 705 kb/s
Width : 1 920 pixels
Height : 1 080 pixels
Display aspect ratio : 16:9
Frame rate mode : Constant
Frame rate : 23.976 (24000/1001) FPS
Color space : YUV
Chroma subsampling : 4:2:0
Bit depth : 10 bits
Bits/(Pixel*Frame) : 0.034
Stream size : 1.10 GiB (89%)
Default : Yes
Forced : No
Color range : Limited
Color primaries : BT.709
Transfer characteristics : BT.709
Matrix coefficients : BT.709

Audio
ID : 2
Format : AAC LC SBR
Commercial name : HE-AAC
Format settings : Explicit
Codec ID : A_AAC-2
Duration : 1 h 32 min
Bit rate : 199 kb/s
Channel(s) : 6 channels
Channel layout : C L R Ls Rs LFE
Sampling rate : 48.0 kHz
Frame rate : 23.438 FPS (2048 SPF)
Compression mode : Lossy
Delay relative to video : 23 ms
Stream size : 132 MiB (10%)
Language : English
Default : Yes
Forced : No

Text #1
ID : 3
Format : UTF-8
Codec ID : S_TEXT/UTF8
Codec ID/Info : UTF-8 Plain Text
Duration : 1 h 30 min
Bit rate : 109 b/s
Frame rate : 0.410 FPS
Count of elements : 2236
Stream size : 72.6 KiB (0%)
Title : English [SDH]
Language : English
Default : Yes
Forced : No

Text #2
ID : 4
Format : UTF-8
Codec ID : S_TEXT/UTF8
Codec ID/Info : UTF-8 Plain Text
Duration : 1 h 30 min
Bit rate : 142 b/s
Frame rate : 0.295 FPS
Count of elements : 1606
Stream size : 95.0 KiB (0%)
Title : Arabic
Language : Arabic
Default : No
Forced : No

Text #3
ID : 5
Format : UTF-8
Codec ID : S_TEXT/UTF8
Codec ID/Info : UTF-8 Plain Text
Duration : 1 h 30 min
Bit rate : 91 b/s
Frame rate : 0.294 FPS
Count of elements : 1604
Stream size : 60.8 KiB (0%)
Title : Chinese Simplified
Language : Chinese
Default : No
Forced : No

Text #4
ID : 6
Format : UTF-8
Codec ID : S_TEXT/UTF8
Codec ID/Info : UTF-8 Plain Text
Duration : 1 h 30 min
Bit rate : 63 b/s
Frame rate : 0.294 FPS
Count of elements : 1603
Stream size : 42.4 KiB (0%)
Title : Chinese Traditional
Language : Chinese
Default : No
Forced : No

Text #5
ID : 7
Format : UTF-8
Codec ID : S_TEXT/UTF8
Codec ID/Info : UTF-8 Plain Text
Duration : 1 h 30 min
Bit rate : 88 b/s
Frame rate : 0.294 FPS
Count of elements : 1602
Stream size : 59.1 KiB (0%)
Title : Czech (Czechia)
Language : Czech
Default : No
Forced : No

Text #6
ID : 8
Format : UTF-8
Codec ID : S_TEXT/UTF8
Codec ID/Info : UTF-8 Plain Text
Duration : 1 h 30 min
Bit rate : 82 b/s
Frame rate : 0.293 FPS
Count of elements : 1597
Stream size : 55.1 KiB (0%)
Title : Danish
Language : Danish
Default : No
Forced : No

Text #7
ID : 9
Format : UTF-8
Codec ID : S_TEXT/UTF8
Codec ID/Info : UTF-8 Plain Text
Duration : 1 h 30 min
Bit rate : 78 b/s
Frame rate : 0.288 FPS
Count of elements : 1567
Stream size : 52.2 KiB (0%)
Title : Dutch
Language : Dutch
Default : No
Forced : No

Text #8
ID : 10
Format : UTF-8
Codec ID : S_TEXT/UTF8
Codec ID/Info : UTF-8 Plain Text
Duration : 1 h 30 min
Bit rate : 83 b/s
Frame rate : 0.294 FPS
Count of elements : 1603
Stream size : 55.3 KiB (0%)
Title : European Spanish
Language : Spanish
Default : No
Forced : No

Text #9
ID : 11
Format : UTF-8
Codec ID : S_TEXT/UTF8
Codec ID/Info : UTF-8 Plain Text
Duration : 1 h 30 min
Bit rate : 74 b/s
Frame rate : 0.294 FPS
Count of elements : 1598
Stream size : 49.2 KiB (0%)
Title : Finnish
Language : Finnish
Default : No
Forced : No

Text #10
ID : 12
Format : UTF-8
Codec ID : S_TEXT/UTF8
Codec ID/Info : UTF-8 Plain Text
Duration : 1 h 30 min
Bit rate : 86 b/s
Frame rate : 0.293 FPS
Count of elements : 1594
Stream size : 57.5 KiB (0%)
Title : French
Language : French
Default : No
Forced : No

Text #11
ID : 13
Format : UTF-8
Codec ID : S_TEXT/UTF8
Codec ID/Info : UTF-8 Plain Text
Duration : 1 h 30 min
Bit rate : 96 b/s
Frame rate : 0.294 FPS
Count of elements : 1601
Stream size : 64.1 KiB (0%)
Title : French Canadian
Language : French
Default : No
Forced : No

Text #12
ID : 14
Format : UTF-8
Codec ID : S_TEXT/UTF8
Codec ID/Info : UTF-8 Plain Text
Duration : 1 h 30 min
Bit rate : 87 b/s
Frame rate : 0.294 FPS
Count of elements : 1598
Stream size : 58.0 KiB (0%)
Title : German
Language : German
Default : No
Forced : No

Text #13
ID : 15
Format : UTF-8
Codec ID : S_TEXT/UTF8
Codec ID/Info : UTF-8 Plain Text
Duration : 1 h 30 min
Bit rate : 154 b/s
Frame rate : 0.295 FPS
Count of elements : 1605
Stream size : 103 KiB (0%)
Title : Greek (Modern)
Language : Greek
Default : No
Forced : No

Text #14
ID : 16
Format : UTF-8
Codec ID : S_TEXT/UTF8
Codec ID/Info : UTF-8 Plain Text
Duration : 1 h 30 min
Bit rate : 138 b/s
Frame rate : 0.295 FPS
Count of elements : 1607
Stream size : 92.2 KiB (0%)
Title : Hebrew
Language : Hebrew
Default : No
Forced : No

Text #15
ID : 17
Format : UTF-8
Codec ID : S_TEXT/UTF8
Codec ID/Info : UTF-8 Plain Text
Duration : 1 h 30 min
Bit rate : 211 b/s
Frame rate : 0.295 FPS
Count of elements : 1606
Stream size : 141 KiB (0%)
Title : Hindi
Language : Hindi
Default : No
Forced : No

Text #16
ID : 18
Format : UTF-8
Codec ID : S_TEXT/UTF8
Codec ID/Info : UTF-8 Plain Text
Duration : 1 h 30 min
Bit rate : 90 b/s
Frame rate : 0.294 FPS
Count of elements : 1603
Stream size : 60.0 KiB (0%)
Title : Hungarian
Language : Hungarian
Default : No
Forced : No

Text #17
ID : 19
Format : UTF-8
Codec ID : S_TEXT/UTF8
Codec ID/Info : UTF-8 Plain Text
Duration : 1 h 30 min
Bit rate : 84 b/s
Frame rate : 0.293 FPS
Count of elements : 1598
Stream size : 55.9 KiB (0%)
Title : Indonesian
Language : Indonesian
Default : No
Forced : No

Text #18
ID : 20
Format : UTF-8
Codec ID : S_TEXT/UTF8
Codec ID/Info : UTF-8 Plain Text
Duration : 1 h 30 min
Bit rate : 83 b/s
Frame rate : 0.294 FPS
Count of elements : 1600
Stream size : 55.3 KiB (0%)
Title : Italian
Language : Italian
Default : No
Forced : No

Text #19
ID : 21
Format : UTF-8
Codec ID : S_TEXT/UTF8
Codec ID/Info : UTF-8 Plain Text
Duration : 1 h 30 min
Bit rate : 70 b/s
Frame rate : 0.296 FPS
Count of elements : 1614
Stream size : 47.0 KiB (0%)
Title : Japanese
Language : Japanese
Default : No
Forced : No

Text #20
ID : 22
Format : UTF-8
Codec ID : S_TEXT/UTF8
Codec ID/Info : UTF-8 Plain Text
Duration : 1 h 30 min
Bit rate : 96 b/s
Frame rate : 0.295 FPS
Count of elements : 1606
Stream size : 64.4 KiB (0%)
Title : Korean
Language : Korean
Default : No
Forced : No

Text #21
ID : 23
Format : UTF-8
Codec ID : S_TEXT/UTF8
Codec ID/Info : UTF-8 Plain Text
Duration : 1 h 30 min
Bit rate : 83 b/s
Frame rate : 0.294 FPS
Count of elements : 1603
Stream size : 55.6 KiB (0%)
Title : Latin America Spanish
Language : Spanish
Default : No
Forced : No

Text #22
ID : 24
Format : UTF-8
Codec ID : S_TEXT/UTF8
Codec ID/Info : UTF-8 Plain Text
Duration : 1 h 30 min
Bit rate : 91 b/s
Frame rate : 0.293 FPS
Count of elements : 1599
Stream size : 60.8 KiB (0%)
Title : Malay
Language : Malay
Default : No
Forced : No

Text #23
ID : 25
Format : UTF-8
Codec ID : S_TEXT/UTF8
Codec ID/Info : UTF-8 Plain Text
Duration : 1 h 30 min
Bit rate : 82 b/s
Frame rate : 0.293 FPS
Count of elements : 1598
Stream size : 55.0 KiB (0%)
Title : Norwegian
Language : Norwegian
Default : No
Forced : No

Text #24
ID : 26
Format : UTF-8
Codec ID : S_TEXT/UTF8
Codec ID/Info : UTF-8 Plain Text
Duration : 1 h 30 min
Bit rate : 74 b/s
Frame rate : 0.293 FPS
Count of elements : 1596
Stream size : 49.5 KiB (0%)
Title : Polish
Language : Polish
Default : No
Forced : No

Text #25
ID : 27
Format : UTF-8
Codec ID : S_TEXT/UTF8
Codec ID/Info : UTF-8 Plain Text
Duration : 1 h 30 min
Bit rate : 93 b/s
Frame rate : 0.293 FPS
Count of elements : 1598
Stream size : 62.5 KiB (0%)
Title : Portuguese
Language : Portuguese
Default : No
Forced : No

Text #26
ID : 28
Format : UTF-8
Codec ID : S_TEXT/UTF8
Codec ID/Info : UTF-8 Plain Text
Duration : 1 h 30 min
Bit rate : 83 b/s
Frame rate : 0.294 FPS
Count of elements : 1603
Stream size : 55.4 KiB (0%)
Title : Portuguese Brazilian
Language : Portuguese
Default : No
Forced : No

Text #27
ID : 29
Format : UTF-8
Codec ID : S_TEXT/UTF8
Codec ID/Info : UTF-8 Plain Text
Duration : 1 h 30 min
Bit rate : 87 b/s
Frame rate : 0.294 FPS
Count of elements : 1602
Stream size : 58.5 KiB (0%)
Title : Romanian (Romania)
Language : Romanian
Default : No
Forced : No

Text #28
ID : 30
Format : UTF-8
Codec ID : S_TEXT/UTF8
Codec ID/Info : UTF-8 Plain Text
Duration : 1 h 30 min
Bit rate : 88 b/s
Frame rate : 0.294 FPS
Count of elements : 1600
Stream size : 58.9 KiB (0%)
Title : Swedish
Language : Swedish
Default : No
Forced : No

Text #29
ID : 31
Format : UTF-8
Codec ID : S_TEXT/UTF8
Codec ID/Info : UTF-8 Plain Text
Duration : 1 h 30 min
Bit rate : 217 b/s
Frame rate : 0.295 FPS
Count of elements : 1606
Stream size : 145 KiB (0%)
Title : Thai
Language : Thai
Default : No
Forced : No

Text #30
ID : 32
Format : UTF-8
Codec ID : S_TEXT/UTF8
Codec ID/Info : UTF-8 Plain Text
Duration : 1 h 30 min
Bit rate : 83 b/s
Frame rate : 0.294 FPS
Count of elements : 1603
Stream size : 55.2 KiB (0%)
Title : Turkish
Language : Turkish
Default : No
Forced : No

[collapse]
Download Link(s)

Download

Direct download files get automatically deleted after a month or so. Posted on : 05/30/2024

[collapse]

Media information

General
Format : Matroska
Format version : Version 4
File size : 642 MiB
Duration : 1 h 32 min
Overall bit rate : 968 kb/s
Frame rate : 23.976 FPS
Movie name : Die.Hart.2.Die.Harter.2024.720p.10bit.WEBRip.6CH.x265.HEVC

Video
ID : 1
Format : HEVC
Format/Info : High Efficiency Video Coding
Format profile : Main [email protected]@Main
Codec ID : V_MPEGH/ISO/HEVC
Duration : 1 h 32 min
Bit rate : 762 kb/s
Width : 1 280 pixels
Height : 720 pixels
Display aspect ratio : 16:9
Frame rate mode : Constant
Frame rate : 23.976 (24000/1001) FPS
Color space : YUV
Chroma subsampling : 4:2:0
Bit depth : 10 bits
Bits/(Pixel*Frame) : 0.034
Stream size : 505 MiB (79%)
Default : Yes
Forced : No
Color range : Limited
Color primaries : BT.709
Transfer characteristics : BT.709
Matrix coefficients : BT.709

Audio
ID : 2
Format : AAC LC SBR
Commercial name : HE-AAC
Format settings : Explicit
Codec ID : A_AAC-2
Duration : 1 h 32 min
Bit rate : 199 kb/s
Channel(s) : 6 channels
Channel layout : C L R Ls Rs LFE
Sampling rate : 48.0 kHz
Frame rate : 23.438 FPS (2048 SPF)
Compression mode : Lossy
Delay relative to video : 23 ms
Stream size : 132 MiB (21%)
Language : English
Default : Yes
Forced : No

Text #1
ID : 3
Format : UTF-8
Codec ID : S_TEXT/UTF8
Codec ID/Info : UTF-8 Plain Text
Duration : 1 h 30 min
Bit rate : 109 b/s
Frame rate : 0.410 FPS
Count of elements : 2236
Stream size : 72.6 KiB (0%)
Title : English [SDH]
Language : English
Default : Yes
Forced : No

Text #2
ID : 4
Format : UTF-8
Codec ID : S_TEXT/UTF8
Codec ID/Info : UTF-8 Plain Text
Duration : 1 h 30 min
Bit rate : 142 b/s
Frame rate : 0.295 FPS
Count of elements : 1606
Stream size : 95.0 KiB (0%)
Title : Arabic
Language : Arabic
Default : No
Forced : No

Text #3
ID : 5
Format : UTF-8
Codec ID : S_TEXT/UTF8
Codec ID/Info : UTF-8 Plain Text
Duration : 1 h 30 min
Bit rate : 91 b/s
Frame rate : 0.294 FPS
Count of elements : 1604
Stream size : 60.8 KiB (0%)
Title : Chinese Simplified
Language : Chinese
Default : No
Forced : No

Text #4
ID : 6
Format : UTF-8
Codec ID : S_TEXT/UTF8
Codec ID/Info : UTF-8 Plain Text
Duration : 1 h 30 min
Bit rate : 63 b/s
Frame rate : 0.294 FPS
Count of elements : 1603
Stream size : 42.4 KiB (0%)
Title : Chinese Traditional
Language : Chinese
Default : No
Forced : No

Text #5
ID : 7
Format : UTF-8
Codec ID : S_TEXT/UTF8
Codec ID/Info : UTF-8 Plain Text
Duration : 1 h 30 min
Bit rate : 88 b/s
Frame rate : 0.294 FPS
Count of elements : 1602
Stream size : 59.1 KiB (0%)
Title : Czech (Czechia)
Language : Czech
Default : No
Forced : No

Text #6
ID : 8
Format : UTF-8
Codec ID : S_TEXT/UTF8
Codec ID/Info : UTF-8 Plain Text
Duration : 1 h 30 min
Bit rate : 82 b/s
Frame rate : 0.293 FPS
Count of elements : 1597
Stream size : 55.1 KiB (0%)
Title : Danish
Language : Danish
Default : No
Forced : No

Text #7
ID : 9
Format : UTF-8
Codec ID : S_TEXT/UTF8
Codec ID/Info : UTF-8 Plain Text
Duration : 1 h 30 min
Bit rate : 78 b/s
Frame rate : 0.288 FPS
Count of elements : 1567
Stream size : 52.2 KiB (0%)
Title : Dutch
Language : Dutch
Default : No
Forced : No

Text #8
ID : 10
Format : UTF-8
Codec ID : S_TEXT/UTF8
Codec ID/Info : UTF-8 Plain Text
Duration : 1 h 30 min
Bit rate : 83 b/s
Frame rate : 0.294 FPS
Count of elements : 1603
Stream size : 55.3 KiB (0%)
Title : European Spanish
Language : Spanish
Default : No
Forced : No

Text #9
ID : 11
Format : UTF-8
Codec ID : S_TEXT/UTF8
Codec ID/Info : UTF-8 Plain Text
Duration : 1 h 30 min
Bit rate : 74 b/s
Frame rate : 0.294 FPS
Count of elements : 1598
Stream size : 49.2 KiB (0%)
Title : Finnish
Language : Finnish
Default : No
Forced : No

Text #10
ID : 12
Format : UTF-8
Codec ID : S_TEXT/UTF8
Codec ID/Info : UTF-8 Plain Text
Duration : 1 h 30 min
Bit rate : 86 b/s
Frame rate : 0.293 FPS
Count of elements : 1594
Stream size : 57.5 KiB (0%)
Title : French
Language : French
Default : No
Forced : No

Text #11
ID : 13
Format : UTF-8
Codec ID : S_TEXT/UTF8
Codec ID/Info : UTF-8 Plain Text
Duration : 1 h 30 min
Bit rate : 96 b/s
Frame rate : 0.294 FPS
Count of elements : 1601
Stream size : 64.1 KiB (0%)
Title : French Canadian
Language : French
Default : No
Forced : No

Text #12
ID : 14
Format : UTF-8
Codec ID : S_TEXT/UTF8
Codec ID/Info : UTF-8 Plain Text
Duration : 1 h 30 min
Bit rate : 87 b/s
Frame rate : 0.294 FPS
Count of elements : 1598
Stream size : 58.0 KiB (0%)
Title : German
Language : German
Default : No
Forced : No

Text #13
ID : 15
Format : UTF-8
Codec ID : S_TEXT/UTF8
Codec ID/Info : UTF-8 Plain Text
Duration : 1 h 30 min
Bit rate : 154 b/s
Frame rate : 0.295 FPS
Count of elements : 1605
Stream size : 103 KiB (0%)
Title : Greek (Modern)
Language : Greek
Default : No
Forced : No

Text #14
ID : 16
Format : UTF-8
Codec ID : S_TEXT/UTF8
Codec ID/Info : UTF-8 Plain Text
Duration : 1 h 30 min
Bit rate : 138 b/s
Frame rate : 0.295 FPS
Count of elements : 1607
Stream size : 92.2 KiB (0%)
Title : Hebrew
Language : Hebrew
Default : No
Forced : No

Text #15
ID : 17
Format : UTF-8
Codec ID : S_TEXT/UTF8
Codec ID/Info : UTF-8 Plain Text
Duration : 1 h 30 min
Bit rate : 211 b/s
Frame rate : 0.295 FPS
Count of elements : 1606
Stream size : 141 KiB (0%)
Title : Hindi
Language : Hindi
Default : No
Forced : No

Text #16
ID : 18
Format : UTF-8
Codec ID : S_TEXT/UTF8
Codec ID/Info : UTF-8 Plain Text
Duration : 1 h 30 min
Bit rate : 90 b/s
Frame rate : 0.294 FPS
Count of elements : 1603
Stream size : 60.0 KiB (0%)
Title : Hungarian
Language : Hungarian
Default : No
Forced : No

Text #17
ID : 19
Format : UTF-8
Codec ID : S_TEXT/UTF8
Codec ID/Info : UTF-8 Plain Text
Duration : 1 h 30 min
Bit rate : 84 b/s
Frame rate : 0.293 FPS
Count of elements : 1598
Stream size : 55.9 KiB (0%)
Title : Indonesian
Language : Indonesian
Default : No
Forced : No

Text #18
ID : 20
Format : UTF-8
Codec ID : S_TEXT/UTF8
Codec ID/Info : UTF-8 Plain Text
Duration : 1 h 30 min
Bit rate : 83 b/s
Frame rate : 0.294 FPS
Count of elements : 1600
Stream size : 55.3 KiB (0%)
Title : Italian
Language : Italian
Default : No
Forced : No

Text #19
ID : 21
Format : UTF-8
Codec ID : S_TEXT/UTF8
Codec ID/Info : UTF-8 Plain Text
Duration : 1 h 30 min
Bit rate : 70 b/s
Frame rate : 0.296 FPS
Count of elements : 1614
Stream size : 47.0 KiB (0%)
Title : Japanese
Language : Japanese
Default : No
Forced : No

Text #20
ID : 22
Format : UTF-8
Codec ID : S_TEXT/UTF8
Codec ID/Info : UTF-8 Plain Text
Duration : 1 h 30 min
Bit rate : 96 b/s
Frame rate : 0.295 FPS
Count of elements : 1606
Stream size : 64.4 KiB (0%)
Title : Korean
Language : Korean
Default : No
Forced : No

Text #21
ID : 23
Format : UTF-8
Codec ID : S_TEXT/UTF8
Codec ID/Info : UTF-8 Plain Text
Duration : 1 h 30 min
Bit rate : 83 b/s
Frame rate : 0.294 FPS
Count of elements : 1603
Stream size : 55.6 KiB (0%)
Title : Latin America Spanish
Language : Spanish
Default : No
Forced : No

Text #22
ID : 24
Format : UTF-8
Codec ID : S_TEXT/UTF8
Codec ID/Info : UTF-8 Plain Text
Duration : 1 h 30 min
Bit rate : 91 b/s
Frame rate : 0.293 FPS
Count of elements : 1599
Stream size : 60.8 KiB (0%)
Title : Malay
Language : Malay
Default : No
Forced : No

Text #23
ID : 25
Format : UTF-8
Codec ID : S_TEXT/UTF8
Codec ID/Info : UTF-8 Plain Text
Duration : 1 h 30 min
Bit rate : 82 b/s
Frame rate : 0.293 FPS
Count of elements : 1598
Stream size : 55.0 KiB (0%)
Title : Norwegian
Language : Norwegian
Default : No
Forced : No

Text #24
ID : 26
Format : UTF-8
Codec ID : S_TEXT/UTF8
Codec ID/Info : UTF-8 Plain Text
Duration : 1 h 30 min
Bit rate : 74 b/s
Frame rate : 0.293 FPS
Count of elements : 1596
Stream size : 49.5 KiB (0%)
Title : Polish
Language : Polish
Default : No
Forced : No

Text #25
ID : 27
Format : UTF-8
Codec ID : S_TEXT/UTF8
Codec ID/Info : UTF-8 Plain Text
Duration : 1 h 30 min
Bit rate : 93 b/s
Frame rate : 0.293 FPS
Count of elements : 1598
Stream size : 62.5 KiB (0%)
Title : Portuguese
Language : Portuguese
Default : No
Forced : No

Text #26
ID : 28
Format : UTF-8
Codec ID : S_TEXT/UTF8
Codec ID/Info : UTF-8 Plain Text
Duration : 1 h 30 min
Bit rate : 83 b/s
Frame rate : 0.294 FPS
Count of elements : 1603
Stream size : 55.4 KiB (0%)
Title : Portuguese Brazilian
Language : Portuguese
Default : No
Forced : No

Text #27
ID : 29
Format : UTF-8
Codec ID : S_TEXT/UTF8
Codec ID/Info : UTF-8 Plain Text
Duration : 1 h 30 min
Bit rate : 87 b/s
Frame rate : 0.294 FPS
Count of elements : 1602
Stream size : 58.5 KiB (0%)
Title : Romanian (Romania)
Language : Romanian
Default : No
Forced : No

Text #28
ID : 30
Format : UTF-8
Codec ID : S_TEXT/UTF8
Codec ID/Info : UTF-8 Plain Text
Duration : 1 h 30 min
Bit rate : 88 b/s
Frame rate : 0.294 FPS
Count of elements : 1600
Stream size : 58.9 KiB (0%)
Title : Swedish
Language : Swedish
Default : No
Forced : No

Text #29
ID : 31
Format : UTF-8
Codec ID : S_TEXT/UTF8
Codec ID/Info : UTF-8 Plain Text
Duration : 1 h 30 min
Bit rate : 217 b/s
Frame rate : 0.295 FPS
Count of elements : 1606
Stream size : 145 KiB (0%)
Title : Thai
Language : Thai
Default : No
Forced : No

Text #30
ID : 32
Format : UTF-8
Codec ID : S_TEXT/UTF8
Codec ID/Info : UTF-8 Plain Text
Duration : 1 h 30 min
Bit rate : 83 b/s
Frame rate : 0.294 FPS
Count of elements : 1603
Stream size : 55.2 KiB (0%)
Title : Turkish
Language : Turkish
Default : No
Forced : No

[collapse]
Download Link(s)

Download

Direct download files get automatically deleted after a month or so. Posted on : 05/30/2024

[collapse]

Magnet Link

Magnet

Die.Hart.2.Die.Harter.2024.1080p.WEB.H264-AccomplishedYak-5.34 GB

[collapse]

You may also like...

error: nah :p~