Dial M for Murder (1954)

PG | 1h 45min | Crime, Thriller | 29 May 1954 (USA)

A tennis player tries to arrange his wife’s murder after learning of her affair.

Watch trailer

Media information

General
Format : Matroska
Format version : Version 4
File size : 1.06 GiB
Duration : 1 h 45 min
Overall bit rate : 1 438 kb/s
Movie name : Dial.M.for.Murder.1954.1080p.10bit.BluRay.1CH.x265.HEVC

Video
ID : 1
Format : HEVC
Format/Info : High Efficiency Video Coding
Format profile : Main 10@L4@Main
Codec ID : V_MPEGH/ISO/HEVC
Duration : 1 h 45 min
Bit rate : 1 301 kb/s
Width : 1 920 pixels
Height : 1 080 pixels
Display aspect ratio : 16:9
Frame rate mode : Constant
Frame rate : 23.976 (24000/1001) FPS
Color space : YUV
Chroma subsampling : 4:2:0
Bit depth : 10 bits
Bits/(Pixel*Frame) : 0.026
Stream size : 981 MiB (90%)
Default : Yes
Forced : No
Color range : Limited
Color primaries : BT.709
Transfer characteristics : BT.709
Matrix coefficients : BT.709

Audio
ID : 2
Format : AAC LC
Codec ID : A_AAC-2
Duration : 1 h 45 min
Bit rate : 112 kb/s
Channel(s) : 1 channel
Channel layout : C
Sampling rate : 48.0 kHz
Frame rate : 46.875 FPS (1024 SPF)
Compression mode : Lossy
Delay relative to video : -1 ms
Stream size : 84.8 MiB (8%)
Language : English
Default : Yes
Forced : No

Text
ID : 3
Format : PGS
Muxing mode : zlib
Codec ID : S_HDMV/PGS
Duration : 1 h 44 min
Bit rate : 53.5 kb/s
Count of elements : 3454
Stream size : 39.8 MiB (4%)
Language : English
Default : Yes
Forced : Yes

[collapse]
Download Link(s)

Download

Direct download files get automatically deleted after a month or so. Posted on : 05/31/2020

[collapse]
Magnet Link

Magnet

Dial-M-for-Murder-1954-1080p-BluRay-x265-HEVC-10bit-AAC-1-4.0 GB

[collapse]

Media information

General
Format : Matroska
Format version : Version 4
File size : 657 MiB
Duration : 1 h 45 min
Overall bit rate : 872 kb/s
Movie name : Dial.M.for.Murder.1954.720p.10bit.BluRay.1CH.x265.HEVC

Video
ID : 1
Format : HEVC
Format/Info : High Efficiency Video Coding
Format profile : Main [email protected]@Main
Codec ID : V_MPEGH/ISO/HEVC
Duration : 1 h 45 min
Bit rate : 751 kb/s
Width : 1 280 pixels
Height : 720 pixels
Display aspect ratio : 16:9
Frame rate mode : Constant
Frame rate : 23.976 (24000/1001) FPS
Color space : YUV
Chroma subsampling : 4:2:0
Bit depth : 10 bits
Bits/(Pixel*Frame) : 0.034
Stream size : 566 MiB (86%)
Default : Yes
Forced : No
Color range : Limited
Color primaries : BT.709
Transfer characteristics : BT.709
Matrix coefficients : BT.709

Audio
ID : 2
Format : AAC LC
Codec ID : A_AAC-2
Duration : 1 h 45 min
Bit rate : 96.0 kb/s
Channel(s) : 1 channel
Channel layout : C
Sampling rate : 48.0 kHz
Frame rate : 46.875 FPS (1024 SPF)
Compression mode : Lossy
Delay relative to video : -1 ms
Stream size : 72.7 MiB (11%)
Language : English
Default : Yes
Forced : No

Text
ID : 3
Format : PGS
Muxing mode : zlib
Codec ID : S_HDMV/PGS
Duration : 1 h 44 min
Bit rate : 53.5 kb/s
Count of elements : 3454
Stream size : 39.8 MiB (6%)
Language : English
Default : Yes
Forced : Yes

[collapse]
Download Link(s)

Download

Direct download files get automatically deleted after a month or so. Posted on : 05/31/2020

[collapse]
Magnet Link

Magnet

Dial-M-for-Murder-1954-1080p-BluRay-x265-HEVC-10bit-AAC-1-4.0 GB

[collapse]

You may also like...

error: nah :p~