Dave Chappelle: The Dreamer (2023)

TV Special | 506min | Comedy

From his onstage tackle to the slap heard round the world, the comic lets loose in this freewheeling and unfiltered comedy special.

Watch trailer

Media information

General
Format : Matroska
Format version : Version 4
File size : 1 001 MiB
Duration : 56 min 50 s
Overall bit rate : 2 461 kb/s
Frame rate : 23.976 FPS
Movie name : Dave.Chappelle.The.Dreamer.2023.1080p.10bit.WEBRip.6CH.x265.HEVC

Video
ID : 1
Format : HEVC
Format/Info : High Efficiency Video Coding
Format profile : Main 10@L4@Main
Codec ID : V_MPEGH/ISO/HEVC
Duration : 56 min 50 s
Bit rate : 2 070 kb/s
Width : 1 920 pixels
Height : 1 080 pixels
Display aspect ratio : 16:9
Frame rate mode : Constant
Frame rate : 23.976 (24000/1001) FPS
Color space : YUV
Chroma subsampling : 4:2:0 (Type 0)
Bit depth : 10 bits
Bits/(Pixel*Frame) : 0.042
Stream size : 842 MiB (84%)
Default : Yes
Forced : No
Color range : Limited

Audio
ID : 2
Format : E-AC-3
Format/Info : Enhanced AC-3
Commercial name : Dolby Digital Plus
Codec ID : A_EAC3
Duration : 56 min 50 s
Bit rate mode : Constant
Bit rate : 384 kb/s
Channel(s) : 6 channels
Channel layout : L R C LFE Ls Rs
Sampling rate : 48.0 kHz
Frame rate : 31.250 FPS (1536 SPF)
Bit depth : 32 bits
Compression mode : Lossy
Stream size : 156 MiB (16%)
Language : English
Service kind : Complete Main
Default : Yes
Forced : No

Text #1
ID : 3
Format : UTF-8
Codec ID : S_TEXT/UTF8
Codec ID/Info : UTF-8 Plain Text
Duration : 56 min 13 s
Bit rate : 88 b/s
Frame rate : 0.259 FPS
Count of elements : 873
Stream size : 36.4 KiB (0%)
Title : English (SDH)
Language : English
Default : Yes
Forced : No

Text #2
ID : 4
Format : UTF-8
Codec ID : S_TEXT/UTF8
Codec ID/Info : UTF-8 Plain Text
Duration : 56 min 36 s
Bit rate : 111 b/s
Frame rate : 0.240 FPS
Count of elements : 815
Stream size : 46.2 KiB (0%)
Title : Arabic
Language : Arabic
Default : No
Forced : No

Text #3
ID : 5
Format : UTF-8
Codec ID : S_TEXT/UTF8
Codec ID/Info : UTF-8 Plain Text
Duration : 56 min 36 s
Bit rate : 69 b/s
Frame rate : 0.239 FPS
Count of elements : 812
Stream size : 28.7 KiB (0%)
Title : Czech
Language : Czech
Default : No
Forced : No

Text #4
ID : 6
Format : UTF-8
Codec ID : S_TEXT/UTF8
Codec ID/Info : UTF-8 Plain Text
Duration : 56 min 36 s
Bit rate : 67 b/s
Frame rate : 0.237 FPS
Count of elements : 806
Stream size : 27.9 KiB (0%)
Title : Danish
Language : Danish
Default : No
Forced : No

Text #5
ID : 7
Format : UTF-8
Codec ID : S_TEXT/UTF8
Codec ID/Info : UTF-8 Plain Text
Duration : 56 min 36 s
Bit rate : 73 b/s
Frame rate : 0.239 FPS
Count of elements : 811
Stream size : 30.3 KiB (0%)
Title : German
Language : German
Default : No
Forced : No

Text #6
ID : 8
Format : UTF-8
Codec ID : S_TEXT/UTF8
Codec ID/Info : UTF-8 Plain Text
Duration : 56 min 36 s
Bit rate : 125 b/s
Frame rate : 0.240 FPS
Count of elements : 814
Stream size : 52.1 KiB (0%)
Title : Greek
Language : Greek
Default : No
Forced : No

Text #7
ID : 9
Format : UTF-8
Codec ID : S_TEXT/UTF8
Codec ID/Info : UTF-8 Plain Text
Duration : 56 min 36 s
Bit rate : 69 b/s
Frame rate : 0.239 FPS
Count of elements : 811
Stream size : 28.8 KiB (0%)
Title : Spanish (Spain)
Language : Spanish
Default : No
Forced : No

Text #8
ID : 10
Format : UTF-8
Codec ID : S_TEXT/UTF8
Codec ID/Info : UTF-8 Plain Text
Duration : 56 min 36 s
Bit rate : 70 b/s
Frame rate : 0.239 FPS
Count of elements : 811
Stream size : 29.4 KiB (0%)
Title : Spanish (Latin America)
Language : Spanish
Default : No
Forced : No

Text #9
ID : 11
Format : UTF-8
Codec ID : S_TEXT/UTF8
Codec ID/Info : UTF-8 Plain Text
Duration : 56 min 36 s
Bit rate : 67 b/s
Frame rate : 0.239 FPS
Count of elements : 811
Stream size : 27.9 KiB (0%)
Title : Finnish
Language : Finnish
Default : No
Forced : No

Text #10
ID : 12
Format : UTF-8
Codec ID : S_TEXT/UTF8
Codec ID/Info : UTF-8 Plain Text
Duration : 56 min 36 s
Bit rate : 70 b/s
Frame rate : 0.238 FPS
Count of elements : 810
Stream size : 29.4 KiB (0%)
Title : Filipino
Language : English
Default : No
Forced : No

Text #11
ID : 13
Format : UTF-8
Codec ID : S_TEXT/UTF8
Codec ID/Info : UTF-8 Plain Text
Duration : 56 min 36 s
Bit rate : 73 b/s
Frame rate : 0.238 FPS
Count of elements : 810
Stream size : 30.6 KiB (0%)
Title : French
Language : French
Default : No
Forced : No

Text #12
ID : 14
Format : UTF-8
Codec ID : S_TEXT/UTF8
Codec ID/Info : UTF-8 Plain Text
Duration : 56 min 36 s
Bit rate : 113 b/s
Frame rate : 0.240 FPS
Count of elements : 815
Stream size : 47.0 KiB (0%)
Title : Hebrew
Language : Hebrew
Default : No
Forced : No

Text #13
ID : 15
Format : UTF-8
Codec ID : S_TEXT/UTF8
Codec ID/Info : UTF-8 Plain Text
Duration : 56 min 36 s
Bit rate : 67 b/s
Frame rate : 0.239 FPS
Count of elements : 812
Stream size : 28.1 KiB (0%)
Title : Croatian
Language : Croatian
Default : No
Forced : No

Text #14
ID : 16
Format : UTF-8
Codec ID : S_TEXT/UTF8
Codec ID/Info : UTF-8 Plain Text
Duration : 56 min 36 s
Bit rate : 70 b/s
Frame rate : 0.240 FPS
Count of elements : 814
Stream size : 29.3 KiB (0%)
Title : Hungarian
Language : Hungarian
Default : No
Forced : No

Text #15
ID : 17
Format : UTF-8
Codec ID : S_TEXT/UTF8
Codec ID/Info : UTF-8 Plain Text
Duration : 56 min 36 s
Bit rate : 71 b/s
Frame rate : 0.239 FPS
Count of elements : 812
Stream size : 29.7 KiB (0%)
Title : Indonesian
Language : Indonesian
Default : No
Forced : No

Text #16
ID : 18
Format : UTF-8
Codec ID : S_TEXT/UTF8
Codec ID/Info : UTF-8 Plain Text
Duration : 56 min 36 s
Bit rate : 71 b/s
Frame rate : 0.238 FPS
Count of elements : 810
Stream size : 29.7 KiB (0%)
Title : Italian
Language : Italian
Default : No
Forced : No

Text #17
ID : 19
Format : UTF-8
Codec ID : S_TEXT/UTF8
Codec ID/Info : UTF-8 Plain Text
Duration : 56 min 36 s
Bit rate : 65 b/s
Frame rate : 0.210 FPS
Count of elements : 714
Stream size : 27.2 KiB (0%)
Title : Japanese
Language : Japanese
Default : No
Forced : No

Text #18
ID : 20
Format : UTF-8
Codec ID : S_TEXT/UTF8
Codec ID/Info : UTF-8 Plain Text
Duration : 56 min 36 s
Bit rate : 84 b/s
Frame rate : 0.240 FPS
Count of elements : 815
Stream size : 35.0 KiB (0%)
Title : Korean
Language : Korean
Default : No
Forced : No

Text #19
ID : 21
Format : UTF-8
Codec ID : S_TEXT/UTF8
Codec ID/Info : UTF-8 Plain Text
Duration : 56 min 36 s
Bit rate : 67 b/s
Frame rate : 0.239 FPS
Count of elements : 811
Stream size : 28.1 KiB (0%)
Title : Malay
Language : Malay
Default : No
Forced : No

Text #20
ID : 22
Format : UTF-8
Codec ID : S_TEXT/UTF8
Codec ID/Info : UTF-8 Plain Text
Duration : 56 min 36 s
Bit rate : 67 b/s
Frame rate : 0.239 FPS
Count of elements : 811
Stream size : 28.0 KiB (0%)
Title : Norwegian
Language : Norwegian Bokmal
Default : No
Forced : No

Text #21
ID : 23
Format : UTF-8
Codec ID : S_TEXT/UTF8
Codec ID/Info : UTF-8 Plain Text
Duration : 56 min 36 s
Bit rate : 70 b/s
Frame rate : 0.238 FPS
Count of elements : 808
Stream size : 29.3 KiB (0%)
Title : Dutch
Language : Dutch
Default : No
Forced : No

Text #22
ID : 24
Format : UTF-8
Codec ID : S_TEXT/UTF8
Codec ID/Info : UTF-8 Plain Text
Duration : 56 min 36 s
Bit rate : 68 b/s
Frame rate : 0.239 FPS
Count of elements : 812
Stream size : 28.2 KiB (0%)
Title : Polish
Language : Polish
Default : No
Forced : No

Text #23
ID : 25
Format : UTF-8
Codec ID : S_TEXT/UTF8
Codec ID/Info : UTF-8 Plain Text
Duration : 56 min 36 s
Bit rate : 73 b/s
Frame rate : 0.239 FPS
Count of elements : 812
Stream size : 30.6 KiB (0%)
Title : Portuguese (Brazil)
Language : Portuguese
Default : No
Forced : No

Text #24
ID : 26
Format : UTF-8
Codec ID : S_TEXT/UTF8
Codec ID/Info : UTF-8 Plain Text
Duration : 56 min 36 s
Bit rate : 68 b/s
Frame rate : 0.239 FPS
Count of elements : 811
Stream size : 28.4 KiB (0%)
Title : Portuguese (Portugal)
Language : Portuguese
Default : No
Forced : No

Text #25
ID : 27
Format : UTF-8
Codec ID : S_TEXT/UTF8
Codec ID/Info : UTF-8 Plain Text
Duration : 56 min 36 s
Bit rate : 76 b/s
Frame rate : 0.239 FPS
Count of elements : 811
Stream size : 31.6 KiB (0%)
Title : Romanian
Language : Romanian
Default : No
Forced : No

Text #26
ID : 28
Format : UTF-8
Codec ID : S_TEXT/UTF8
Codec ID/Info : UTF-8 Plain Text
Duration : 56 min 36 s
Bit rate : 120 b/s
Frame rate : 0.240 FPS
Count of elements : 815
Stream size : 50.0 KiB (0%)
Title : Russian
Language : Russian
Default : No
Forced : No

Text #27
ID : 29
Format : UTF-8
Codec ID : S_TEXT/UTF8
Codec ID/Info : UTF-8 Plain Text
Duration : 56 min 36 s
Bit rate : 77 b/s
Frame rate : 0.239 FPS
Count of elements : 811
Stream size : 32.0 KiB (0%)
Title : Swedish
Language : Swedish
Default : No
Forced : No

Text #28
ID : 30
Format : UTF-8
Codec ID : S_TEXT/UTF8
Codec ID/Info : UTF-8 Plain Text
Duration : 56 min 36 s
Bit rate : 181 b/s
Frame rate : 0.240 FPS
Count of elements : 815
Stream size : 75.1 KiB (0%)
Title : Thai
Language : Thai
Default : No
Forced : No

Text #29
ID : 31
Format : UTF-8
Codec ID : S_TEXT/UTF8
Codec ID/Info : UTF-8 Plain Text
Duration : 56 min 27 s
Bit rate : 74 b/s
Frame rate : 0.239 FPS
Count of elements : 809
Stream size : 30.7 KiB (0%)
Title : Turkish
Language : Turkish
Default : No
Forced : No

Text #30
ID : 32
Format : UTF-8
Codec ID : S_TEXT/UTF8
Codec ID/Info : UTF-8 Plain Text
Duration : 56 min 36 s
Bit rate : 128 b/s
Frame rate : 0.240 FPS
Count of elements : 815
Stream size : 53.5 KiB (0%)
Title : Ukrainian
Language : Ukrainian
Default : No
Forced : No

Text #31
ID : 33
Format : UTF-8
Codec ID : S_TEXT/UTF8
Codec ID/Info : UTF-8 Plain Text
Duration : 56 min 36 s
Bit rate : 92 b/s
Frame rate : 0.239 FPS
Count of elements : 812
Stream size : 38.2 KiB (0%)
Title : Vietnamese
Language : Vietnamese
Default : No
Forced : No

Text #32
ID : 34
Format : UTF-8
Codec ID : S_TEXT/UTF8
Codec ID/Info : UTF-8 Plain Text
Duration : 56 min 36 s
Bit rate : 72 b/s
Frame rate : 0.240 FPS
Count of elements : 815
Stream size : 30.3 KiB (0%)
Title : Simplified Chinese
Language : Chinese
Default : No
Forced : No

Text #33
ID : 35
Format : UTF-8
Codec ID : S_TEXT/UTF8
Codec ID/Info : UTF-8 Plain Text
Duration : 56 min 36 s
Bit rate : 73 b/s
Frame rate : 0.240 FPS
Count of elements : 815
Stream size : 30.5 KiB (0%)
Title : Traditional Chinese
Language : Chinese
Default : No
Forced : No

[collapse]
Download Link(s)

Download

Direct download files get automatically deleted after a month or so. Posted on : 01/03/2024

[collapse]
Magnet Link

Magnet

Dave.Chappelle.The.Dreamer.2023.1080p.WEB.h264-ETHEL.TGx-2.6 GB

[collapse]

Media information

General
Format : Matroska
Format version : Version 4
File size : 476 MiB
Duration : 56 min 50 s
Overall bit rate : 1 170 kb/s
Frame rate : 23.976 FPS
Movie name : Dave.Chappelle.The.Dreamer.2023.720p.10bit.WEBRip.6CH.x265.HEVC

Video
ID : 1
Format : HEVC
Format/Info : High Efficiency Video Coding
Format profile : Main [email protected]@Main
Codec ID : V_MPEGH/ISO/HEVC
Duration : 56 min 50 s
Bit rate : 971 kb/s
Width : 1 280 pixels
Height : 720 pixels
Display aspect ratio : 16:9
Frame rate mode : Constant
Frame rate : 23.976 (24000/1001) FPS
Color space : YUV
Chroma subsampling : 4:2:0 (Type 0)
Bit depth : 10 bits
Bits/(Pixel*Frame) : 0.044
Stream size : 395 MiB (83%)
Default : Yes
Forced : No
Color range : Limited

Audio
ID : 2
Format : E-AC-3
Format/Info : Enhanced AC-3
Commercial name : Dolby Digital Plus
Codec ID : A_EAC3
Duration : 56 min 50 s
Bit rate mode : Constant
Bit rate : 192 kb/s
Channel(s) : 6 channels
Channel layout : L R C LFE Ls Rs
Sampling rate : 48.0 kHz
Frame rate : 31.250 FPS (1536 SPF)
Bit depth : 32 bits
Compression mode : Lossy
Stream size : 78.1 MiB (16%)
Language : English
Service kind : Complete Main
Default : Yes
Forced : No

Text #1
ID : 3
Format : UTF-8
Codec ID : S_TEXT/UTF8
Codec ID/Info : UTF-8 Plain Text
Duration : 56 min 13 s
Bit rate : 88 b/s
Frame rate : 0.259 FPS
Count of elements : 873
Stream size : 36.4 KiB (0%)
Title : English (SDH)
Language : English
Default : Yes
Forced : No

Text #2
ID : 4
Format : UTF-8
Codec ID : S_TEXT/UTF8
Codec ID/Info : UTF-8 Plain Text
Duration : 56 min 36 s
Bit rate : 111 b/s
Frame rate : 0.240 FPS
Count of elements : 815
Stream size : 46.2 KiB (0%)
Title : Arabic
Language : Arabic
Default : No
Forced : No

Text #3
ID : 5
Format : UTF-8
Codec ID : S_TEXT/UTF8
Codec ID/Info : UTF-8 Plain Text
Duration : 56 min 36 s
Bit rate : 69 b/s
Frame rate : 0.239 FPS
Count of elements : 812
Stream size : 28.7 KiB (0%)
Title : Czech
Language : Czech
Default : No
Forced : No

Text #4
ID : 6
Format : UTF-8
Codec ID : S_TEXT/UTF8
Codec ID/Info : UTF-8 Plain Text
Duration : 56 min 36 s
Bit rate : 67 b/s
Frame rate : 0.237 FPS
Count of elements : 806
Stream size : 27.9 KiB (0%)
Title : Danish
Language : Danish
Default : No
Forced : No

Text #5
ID : 7
Format : UTF-8
Codec ID : S_TEXT/UTF8
Codec ID/Info : UTF-8 Plain Text
Duration : 56 min 36 s
Bit rate : 73 b/s
Frame rate : 0.239 FPS
Count of elements : 811
Stream size : 30.3 KiB (0%)
Title : German
Language : German
Default : No
Forced : No

Text #6
ID : 8
Format : UTF-8
Codec ID : S_TEXT/UTF8
Codec ID/Info : UTF-8 Plain Text
Duration : 56 min 36 s
Bit rate : 125 b/s
Frame rate : 0.240 FPS
Count of elements : 814
Stream size : 52.1 KiB (0%)
Title : Greek
Language : Greek
Default : No
Forced : No

Text #7
ID : 9
Format : UTF-8
Codec ID : S_TEXT/UTF8
Codec ID/Info : UTF-8 Plain Text
Duration : 56 min 36 s
Bit rate : 69 b/s
Frame rate : 0.239 FPS
Count of elements : 811
Stream size : 28.8 KiB (0%)
Title : Spanish (Spain)
Language : Spanish
Default : No
Forced : No

Text #8
ID : 10
Format : UTF-8
Codec ID : S_TEXT/UTF8
Codec ID/Info : UTF-8 Plain Text
Duration : 56 min 36 s
Bit rate : 70 b/s
Frame rate : 0.239 FPS
Count of elements : 811
Stream size : 29.4 KiB (0%)
Title : Spanish (Latin America)
Language : Spanish
Default : No
Forced : No

Text #9
ID : 11
Format : UTF-8
Codec ID : S_TEXT/UTF8
Codec ID/Info : UTF-8 Plain Text
Duration : 56 min 36 s
Bit rate : 67 b/s
Frame rate : 0.239 FPS
Count of elements : 811
Stream size : 27.9 KiB (0%)
Title : Finnish
Language : Finnish
Default : No
Forced : No

Text #10
ID : 12
Format : UTF-8
Codec ID : S_TEXT/UTF8
Codec ID/Info : UTF-8 Plain Text
Duration : 56 min 36 s
Bit rate : 70 b/s
Frame rate : 0.238 FPS
Count of elements : 810
Stream size : 29.4 KiB (0%)
Title : Filipino
Language : English
Default : No
Forced : No

Text #11
ID : 13
Format : UTF-8
Codec ID : S_TEXT/UTF8
Codec ID/Info : UTF-8 Plain Text
Duration : 56 min 36 s
Bit rate : 73 b/s
Frame rate : 0.238 FPS
Count of elements : 810
Stream size : 30.6 KiB (0%)
Title : French
Language : French
Default : No
Forced : No

Text #12
ID : 14
Format : UTF-8
Codec ID : S_TEXT/UTF8
Codec ID/Info : UTF-8 Plain Text
Duration : 56 min 36 s
Bit rate : 113 b/s
Frame rate : 0.240 FPS
Count of elements : 815
Stream size : 47.0 KiB (0%)
Title : Hebrew
Language : Hebrew
Default : No
Forced : No

Text #13
ID : 15
Format : UTF-8
Codec ID : S_TEXT/UTF8
Codec ID/Info : UTF-8 Plain Text
Duration : 56 min 36 s
Bit rate : 67 b/s
Frame rate : 0.239 FPS
Count of elements : 812
Stream size : 28.1 KiB (0%)
Title : Croatian
Language : Croatian
Default : No
Forced : No

Text #14
ID : 16
Format : UTF-8
Codec ID : S_TEXT/UTF8
Codec ID/Info : UTF-8 Plain Text
Duration : 56 min 36 s
Bit rate : 70 b/s
Frame rate : 0.240 FPS
Count of elements : 814
Stream size : 29.3 KiB (0%)
Title : Hungarian
Language : Hungarian
Default : No
Forced : No

Text #15
ID : 17
Format : UTF-8
Codec ID : S_TEXT/UTF8
Codec ID/Info : UTF-8 Plain Text
Duration : 56 min 36 s
Bit rate : 71 b/s
Frame rate : 0.239 FPS
Count of elements : 812
Stream size : 29.7 KiB (0%)
Title : Indonesian
Language : Indonesian
Default : No
Forced : No

Text #16
ID : 18
Format : UTF-8
Codec ID : S_TEXT/UTF8
Codec ID/Info : UTF-8 Plain Text
Duration : 56 min 36 s
Bit rate : 71 b/s
Frame rate : 0.238 FPS
Count of elements : 810
Stream size : 29.7 KiB (0%)
Title : Italian
Language : Italian
Default : No
Forced : No

Text #17
ID : 19
Format : UTF-8
Codec ID : S_TEXT/UTF8
Codec ID/Info : UTF-8 Plain Text
Duration : 56 min 36 s
Bit rate : 65 b/s
Frame rate : 0.210 FPS
Count of elements : 714
Stream size : 27.2 KiB (0%)
Title : Japanese
Language : Japanese
Default : No
Forced : No

Text #18
ID : 20
Format : UTF-8
Codec ID : S_TEXT/UTF8
Codec ID/Info : UTF-8 Plain Text
Duration : 56 min 36 s
Bit rate : 84 b/s
Frame rate : 0.240 FPS
Count of elements : 815
Stream size : 35.0 KiB (0%)
Title : Korean
Language : Korean
Default : No
Forced : No

Text #19
ID : 21
Format : UTF-8
Codec ID : S_TEXT/UTF8
Codec ID/Info : UTF-8 Plain Text
Duration : 56 min 36 s
Bit rate : 67 b/s
Frame rate : 0.239 FPS
Count of elements : 811
Stream size : 28.1 KiB (0%)
Title : Malay
Language : Malay
Default : No
Forced : No

Text #20
ID : 22
Format : UTF-8
Codec ID : S_TEXT/UTF8
Codec ID/Info : UTF-8 Plain Text
Duration : 56 min 36 s
Bit rate : 67 b/s
Frame rate : 0.239 FPS
Count of elements : 811
Stream size : 28.0 KiB (0%)
Title : Norwegian
Language : Norwegian Bokmal
Default : No
Forced : No

Text #21
ID : 23
Format : UTF-8
Codec ID : S_TEXT/UTF8
Codec ID/Info : UTF-8 Plain Text
Duration : 56 min 36 s
Bit rate : 70 b/s
Frame rate : 0.238 FPS
Count of elements : 808
Stream size : 29.3 KiB (0%)
Title : Dutch
Language : Dutch
Default : No
Forced : No

Text #22
ID : 24
Format : UTF-8
Codec ID : S_TEXT/UTF8
Codec ID/Info : UTF-8 Plain Text
Duration : 56 min 36 s
Bit rate : 68 b/s
Frame rate : 0.239 FPS
Count of elements : 812
Stream size : 28.2 KiB (0%)
Title : Polish
Language : Polish
Default : No
Forced : No

Text #23
ID : 25
Format : UTF-8
Codec ID : S_TEXT/UTF8
Codec ID/Info : UTF-8 Plain Text
Duration : 56 min 36 s
Bit rate : 73 b/s
Frame rate : 0.239 FPS
Count of elements : 812
Stream size : 30.6 KiB (0%)
Title : Portuguese (Brazil)
Language : Portuguese
Default : No
Forced : No

Text #24
ID : 26
Format : UTF-8
Codec ID : S_TEXT/UTF8
Codec ID/Info : UTF-8 Plain Text
Duration : 56 min 36 s
Bit rate : 68 b/s
Frame rate : 0.239 FPS
Count of elements : 811
Stream size : 28.4 KiB (0%)
Title : Portuguese (Portugal)
Language : Portuguese
Default : No
Forced : No

Text #25
ID : 27
Format : UTF-8
Codec ID : S_TEXT/UTF8
Codec ID/Info : UTF-8 Plain Text
Duration : 56 min 36 s
Bit rate : 76 b/s
Frame rate : 0.239 FPS
Count of elements : 811
Stream size : 31.6 KiB (0%)
Title : Romanian
Language : Romanian
Default : No
Forced : No

Text #26
ID : 28
Format : UTF-8
Codec ID : S_TEXT/UTF8
Codec ID/Info : UTF-8 Plain Text
Duration : 56 min 36 s
Bit rate : 120 b/s
Frame rate : 0.240 FPS
Count of elements : 815
Stream size : 50.0 KiB (0%)
Title : Russian
Language : Russian
Default : No
Forced : No

Text #27
ID : 29
Format : UTF-8
Codec ID : S_TEXT/UTF8
Codec ID/Info : UTF-8 Plain Text
Duration : 56 min 36 s
Bit rate : 77 b/s
Frame rate : 0.239 FPS
Count of elements : 811
Stream size : 32.0 KiB (0%)
Title : Swedish
Language : Swedish
Default : No
Forced : No

Text #28
ID : 30
Format : UTF-8
Codec ID : S_TEXT/UTF8
Codec ID/Info : UTF-8 Plain Text
Duration : 56 min 36 s
Bit rate : 181 b/s
Frame rate : 0.240 FPS
Count of elements : 815
Stream size : 75.1 KiB (0%)
Title : Thai
Language : Thai
Default : No
Forced : No

Text #29
ID : 31
Format : UTF-8
Codec ID : S_TEXT/UTF8
Codec ID/Info : UTF-8 Plain Text
Duration : 56 min 27 s
Bit rate : 74 b/s
Frame rate : 0.239 FPS
Count of elements : 809
Stream size : 30.7 KiB (0%)
Title : Turkish
Language : Turkish
Default : No
Forced : No

Text #30
ID : 32
Format : UTF-8
Codec ID : S_TEXT/UTF8
Codec ID/Info : UTF-8 Plain Text
Duration : 56 min 36 s
Bit rate : 128 b/s
Frame rate : 0.240 FPS
Count of elements : 815
Stream size : 53.5 KiB (0%)
Title : Ukrainian
Language : Ukrainian
Default : No
Forced : No

Text #31
ID : 33
Format : UTF-8
Codec ID : S_TEXT/UTF8
Codec ID/Info : UTF-8 Plain Text
Duration : 56 min 36 s
Bit rate : 92 b/s
Frame rate : 0.239 FPS
Count of elements : 812
Stream size : 38.2 KiB (0%)
Title : Vietnamese
Language : Vietnamese
Default : No
Forced : No

Text #32
ID : 34
Format : UTF-8
Codec ID : S_TEXT/UTF8
Codec ID/Info : UTF-8 Plain Text
Duration : 56 min 36 s
Bit rate : 72 b/s
Frame rate : 0.240 FPS
Count of elements : 815
Stream size : 30.3 KiB (0%)
Title : Simplified Chinese
Language : Chinese
Default : No
Forced : No

Text #33
ID : 35
Format : UTF-8
Codec ID : S_TEXT/UTF8
Codec ID/Info : UTF-8 Plain Text
Duration : 56 min 36 s
Bit rate : 73 b/s
Frame rate : 0.240 FPS
Count of elements : 815
Stream size : 30.5 KiB (0%)
Title : Traditional Chinese
Language : Chinese
Default : No
Forced : No

[collapse]
Download Link(s)

Download

Direct download files get automatically deleted after a month or so. Posted on : 01/03/2024

[collapse]
Magnet Link

Magnet

Dave.Chappelle.The.Dreamer.2023.1080p.WEB.h264-ETHEL.TGx-2.6 GB

[collapse]

You may also like...

error: nah :p~