Datsche (2018)

1h 34min | Comedy | 3 October 2019 (Germany)

A na├»ve New Yorker retreats to his dead Grandfather’s summer cottage, a datsche in Germany, but instead of peace he finds Adam, a refugee in hiding.

Watch trailer

Media information

General
Format : Matroska
Format version : Version 4
File size : 627 MiB
Duration : 1 h 33 min
Overall bit rate : 933 kb/s
Movie name : Datsche.2018.GERMAN.720p.WEBRip.2CH.x265.HEVC

Video
ID : 1
Format : HEVC
Format/Info : High Efficiency Video Coding
Format profile : [email protected]@Main
Codec ID : V_MPEGH/ISO/HEVC
Duration : 1 h 33 min
Bit rate : 851 kb/s
Width : 1 280 pixels
Height : 534 pixels
Display aspect ratio : 2.40:1
Frame rate mode : Constant
Frame rate : 24.000 FPS
Color space : YUV
Chroma subsampling : 4:2:0
Bit depth : 8 bits
Bits/(Pixel*Frame) : 0.052
Stream size : 572 MiB (91%)
Default : Yes
Forced : No
Color range : Limited
Color primaries : BT.709
Transfer characteristics : BT.709
Matrix coefficients : BT.709

Audio
ID : 2
Format : AAC LC
Codec ID : A_AAC-2
Duration : 1 h 33 min
Bit rate : 80.1 kb/s
Channel(s) : 2 channels
Channel layout : L R
Sampling rate : 48.0 kHz
Frame rate : 46.875 FPS (1024 SPF)
Compression mode : Lossy
Delay relative to video : -21 ms
Stream size : 53.9 MiB (9%)
Title : Stereo
Language : German
Default : Yes
Forced : No

Text
ID : 3
Format : UTF-8
Codec ID : S_TEXT/UTF8
Codec ID/Info : UTF-8 Plain Text
Duration : 1 h 13 min
Bit rate : 24 b/s
Count of elements : 370
Stream size : 12.9 KiB (0%)
Language : English
Default : Yes
Forced : No

[collapse]
Download Link(s)

Download

Direct download files get automatically deleted after a month or so. Posted on : 04/22/2020

[collapse]
Magnet Link

Magnet

Datsche.2018.GERMAN.1080p.WEBRip.x264-VXT-1.79 GB

[collapse]

You may also like...

error: nah :p~