Curse of Chucky (2013)

Adventure,Comedy,Fantasy | 2013⋅R⋅1h 37min

Watch trailer

Media information

General
Format : Matroska
Format version : Version 4
File size : 1.40 GiB
Duration : 1 h 36 min
Overall bit rate : 2 067 kb/s
Movie name : Curse.of.Chucky.2013.Unrated.1080p.10bit.BluRay.6CH.x265.HEVC

Video
ID : 1
Format : HEVC
Format/Info : High Efficiency Video Coding
Format profile : Main 10@L4@Main
Codec ID : V_MPEGH/ISO/HEVC
Duration : 1 h 36 min
Bit rate : 1 769 kb/s
Width : 1 920 pixels
Height : 1 080 pixels
Display aspect ratio : 16:9
Frame rate mode : Variable
Frame rate : 23.976 FPS
Color space : YUV
Chroma subsampling : 4:2:0 (Type 0)
Bit depth : 10 bits
Bits/(Pixel*Frame) : 0.036
Stream size : 1.19 GiB (86%)
Default : Yes
Forced : No
Color range : Limited

Audio
ID : 2
Format : AAC LC
Codec ID : A_AAC-2
Duration : 1 h 36 min
Bit rate : 288 kb/s
Channel(s) : 6 channels
Channel layout : L R C Cb Lb Rb
Sampling rate : 48.0 kHz
Frame rate : 46.875 FPS (1024 SPF)
Compression mode : Lossy
Stream size : 199 MiB (14%)
Language : English
Default : Yes
Forced : No

Text
ID : 3
Format : PGS
Muxing mode : zlib
Codec ID : S_HDMV/PGS
Duration : 1 h 35 min
Bit rate : 24.2 kb/s
Count of elements : 1890
Stream size : 16.5 MiB (1%)
Language : English
Default : Yes
Forced : No

[collapse]
Download Link(s)

Download

Direct download files get automatically deleted after a month or so. Posted on : 07/01/2021

[collapse]
Magnet Link

Magnet

Childs.Play.Collection.1988.2019.1080p.10bit.Bluray.x265.HEVC-24.4 GB

[collapse]

Media information

General
Format : Matroska
Format version : Version 4
File size : 684 MiB
Duration : 1 h 36 min
Overall bit rate : 989 kb/s
Movie name : Curse.of.Chucky.2013.Unrated.720p.10bit.BluRay.6CH.x265.HEVC

Video
ID : 1
Format : HEVC
Format/Info : High Efficiency Video Coding
Format profile : Main [email protected]@Main
Codec ID : V_MPEGH/ISO/HEVC
Duration : 1 h 36 min
Bit rate : 787 kb/s
Width : 1 280 pixels
Height : 720 pixels
Display aspect ratio : 16:9
Frame rate mode : Variable
Frame rate : 23.976 FPS
Color space : YUV
Chroma subsampling : 4:2:0 (Type 0)
Bit depth : 10 bits
Bits/(Pixel*Frame) : 0.036
Stream size : 544 MiB (80%)
Default : Yes
Forced : No
Color range : Limited

Audio
ID : 2
Format : AAC LC
Codec ID : A_AAC-2
Duration : 1 h 36 min
Bit rate : 192 kb/s
Channel(s) : 6 channels
Channel layout : L R C Cb Lb Rb
Sampling rate : 48.0 kHz
Frame rate : 46.875 FPS (1024 SPF)
Compression mode : Lossy
Stream size : 133 MiB (19%)
Language : English
Default : Yes
Forced : No

Text
ID : 3
Format : PGS
Muxing mode : zlib
Codec ID : S_HDMV/PGS
Duration : 1 h 35 min
Bit rate : 24.2 kb/s
Count of elements : 1890
Stream size : 16.5 MiB (2%)
Language : English
Default : Yes
Forced : No

[collapse]
Download Link(s)

Download

Direct download files get automatically deleted after a month or so. Posted on : 07/01/2021

[collapse]
Magnet Link

Magnet

Childs.Play.Collection.1988.2019.1080p.10bit.Bluray.x265.HEVC-24.4 GB

[collapse]

You may also like...

error: nah :p~