Chitty Chitty Bang Bang (1968)

G | 2h 24min | Adventure, Family, Fantasy

A down-on-his-luck inventor turns a broken-down Grand Prix car into a fancy vehicle for his children, and then they go off on a magical fantasy adventure to save their grandfather in a far-off land.

Watch trailer

Media information

General
Format : Matroska
Format version : Version 4
File size : 2.60 GiB
Duration : 2 h 25 min
Overall bit rate : 2 553 kb/s
Frame rate : 23.976 FPS
Movie name : Chitty.Chitty.Bang,Bang.1968.1080p.10bit.WEBRip.6CH.x265.HEVC

Video
ID : 1
Format : HEVC
Format/Info : High Efficiency Video Coding
Format profile : Main 10@L4@Main
Codec ID : V_MPEGH/ISO/HEVC
Duration : 2 h 25 min
Bit rate : 2 165 kb/s
Width : 1 920 pixels
Height : 872 pixels
Display aspect ratio : 2.2:1
Frame rate mode : Constant
Frame rate : 23.976 (24000/1001) FPS
Color space : YUV
Chroma subsampling : 4:2:0 (Type 0)
Bit depth : 10 bits
Bits/(Pixel*Frame) : 0.054
Stream size : 2.20 GiB (85%)
Default : Yes
Forced : No
Color range : Limited
Color primaries : BT.709
Transfer characteristics : BT.709
Matrix coefficients : BT.709

Audio
ID : 2
Format : AAC LC
Codec ID : A_AAC-2
Duration : 2 h 25 min
Bit rate : 384 kb/s
Channel(s) : 6 channels
Channel layout : L R C Cb Lb Rb
Sampling rate : 48.0 kHz
Frame rate : 46.875 FPS (1024 SPF)
Compression mode : Lossy
Stream size : 400 MiB (15%)
Language : English
Default : Yes
Forced : No

Text #1
ID : 3
Format : UTF-8
Codec ID : S_TEXT/UTF8
Codec ID/Info : UTF-8 Plain Text
Duration : 2 h 23 min
Bit rate : 61 b/s
Frame rate : 0.259 FPS
Count of elements : 2238
Stream size : 64.7 KiB (0%)
Language : English
Default : Yes
Forced : No

Text #2
ID : 4
Format : UTF-8
Codec ID : S_TEXT/UTF8
Codec ID/Info : UTF-8 Plain Text
Duration : 2 h 24 min
Bit rate : 128 b/s
Frame rate : 0.261 FPS
Count of elements : 2260
Stream size : 136 KiB (0%)
Language : Chinese
Default : No
Forced : No

Text #3
ID : 5
Format : UTF-8
Codec ID : S_TEXT/UTF8
Codec ID/Info : UTF-8 Plain Text
Duration : 2 h 24 min
Bit rate : 101 b/s
Frame rate : 0.203 FPS
Count of elements : 1759
Stream size : 108 KiB (0%)
Title : Traditional
Language : Chinese
Default : No
Forced : No

Text #4
ID : 6
Format : UTF-8
Codec ID : S_TEXT/UTF8
Codec ID/Info : UTF-8 Plain Text
Duration : 2 h 17 min
Bit rate : 43 b/s
Frame rate : 0.146 FPS
Count of elements : 1207
Stream size : 43.8 KiB (0%)
Language : Dutch
Default : No
Forced : No

Text #5
ID : 7
Format : UTF-8
Codec ID : S_TEXT/UTF8
Codec ID/Info : UTF-8 Plain Text
Duration : 2 h 24 min
Bit rate : 59 b/s
Frame rate : 0.259 FPS
Count of elements : 2239
Stream size : 62.5 KiB (0%)
Language : English
Default : No
Forced : No

Text #6
ID : 8
Format : UTF-8
Codec ID : S_TEXT/UTF8
Codec ID/Info : UTF-8 Plain Text
Duration : 2 h 18 min
Bit rate : 64 b/s
Frame rate : 0.215 FPS
Count of elements : 1785
Stream size : 65.6 KiB (0%)
Language : French
Default : No
Forced : No

Text #7
ID : 9
Format : UTF-8
Codec ID : S_TEXT/UTF8
Codec ID/Info : UTF-8 Plain Text
Duration : 2 h 23 min
Bit rate : 56 b/s
Frame rate : 0.259 FPS
Count of elements : 2238
Stream size : 60.0 KiB (0%)
Language : Indonesian
Default : No
Forced : No

Text #8
ID : 10
Format : UTF-8
Codec ID : S_TEXT/UTF8
Codec ID/Info : UTF-8 Plain Text
Duration : 2 h 24 min
Bit rate : 51 b/s
Frame rate : 0.203 FPS
Count of elements : 1758
Stream size : 54.1 KiB (0%)
Language : Italian
Default : No
Forced : No

Text #9
ID : 11
Format : UTF-8
Codec ID : S_TEXT/UTF8
Codec ID/Info : UTF-8 Plain Text
Duration : 2 h 23 min
Bit rate : 73 b/s
Frame rate : 0.262 FPS
Count of elements : 2260
Stream size : 77.4 KiB (0%)
Language : Malay
Default : No
Forced : No

Text #10
ID : 12
Format : UTF-8
Codec ID : S_TEXT/UTF8
Codec ID/Info : UTF-8 Plain Text
Duration : 2 h 17 min
Bit rate : 63 b/s
Frame rate : 0.212 FPS
Count of elements : 1748
Stream size : 63.7 KiB (0%)
Language : Polish
Default : No
Forced : No

Text #11
ID : 13
Format : UTF-8
Codec ID : S_TEXT/UTF8
Codec ID/Info : UTF-8 Plain Text
Duration : 2 h 24 min
Bit rate : 50 b/s
Frame rate : 0.202 FPS
Count of elements : 1750
Stream size : 53.1 KiB (0%)
Title : Brazil
Language : Portuguese
Default : No
Forced : No

Text #12
ID : 14
Format : UTF-8
Codec ID : S_TEXT/UTF8
Codec ID/Info : UTF-8 Plain Text
Duration : 2 h 24 min
Bit rate : 55 b/s
Frame rate : 0.203 FPS
Count of elements : 1758
Stream size : 58.2 KiB (0%)
Title : Latino
Language : Spanish
Default : No
Forced : No

Text #13
ID : 15
Format : UTF-8
Codec ID : S_TEXT/UTF8
Codec ID/Info : UTF-8 Plain Text
Duration : 2 h 17 min
Bit rate : 63 b/s
Frame rate : 0.214 FPS
Count of elements : 1763
Stream size : 64.3 KiB (0%)
Language : Swedish
Default : No
Forced : No

Text #14
ID : 16
Format : UTF-8
Codec ID : S_TEXT/UTF8
Codec ID/Info : UTF-8 Plain Text
Duration : 2 h 24 min
Bit rate : 253 b/s
Frame rate : 0.204 FPS
Count of elements : 1768
Stream size : 269 KiB (0%)
Language : Thai
Default : No
Forced : No

Text #15
ID : 17
Format : UTF-8
Codec ID : S_TEXT/UTF8
Codec ID/Info : UTF-8 Plain Text
Duration : 2 h 23 min
Bit rate : 100 b/s
Frame rate : 0.259 FPS
Count of elements : 2242
Stream size : 106 KiB (0%)
Language : Vietnamese
Default : No
Forced : No

[collapse]
Download Link(s)

Download

Direct download files get automatically deleted after a month or so. Posted on : 01/13/2024

[collapse]

Media information

General
Format : Matroska
Format version : Version 4
File size : 1.37 GiB
Duration : 2 h 25 min
Overall bit rate : 1 351 kb/s
Frame rate : 23.976 FPS
Movie name : Chitty.Chitty.Bang,Bang.1968.720p.10bit.WEBRip.6CH.x265.HEVC

Video
ID : 1
Format : HEVC
Format/Info : High Efficiency Video Coding
Format profile : Main [email protected]@Main
Codec ID : V_MPEGH/ISO/HEVC
Duration : 2 h 25 min
Bit rate : 1 058 kb/s
Width : 1 280 pixels
Height : 584 pixels
Display aspect ratio : 2.2:1
Frame rate mode : Constant
Frame rate : 23.976 (24000/1001) FPS
Color space : YUV
Chroma subsampling : 4:2:0 (Type 0)
Bit depth : 10 bits
Bits/(Pixel*Frame) : 0.059
Stream size : 1.08 GiB (78%)
Default : Yes
Forced : No
Color range : Limited
Color primaries : BT.709
Transfer characteristics : BT.709
Matrix coefficients : BT.709

Audio
ID : 2
Format : AAC LC
Codec ID : A_AAC-2
Duration : 2 h 25 min
Bit rate : 288 kb/s
Channel(s) : 6 channels
Channel layout : L R C Cb Lb Rb
Sampling rate : 48.0 kHz
Frame rate : 46.875 FPS (1024 SPF)
Compression mode : Lossy
Stream size : 300 MiB (21%)
Language : English
Default : Yes
Forced : No

Text #1
ID : 3
Format : UTF-8
Codec ID : S_TEXT/UTF8
Codec ID/Info : UTF-8 Plain Text
Duration : 2 h 23 min
Bit rate : 61 b/s
Frame rate : 0.259 FPS
Count of elements : 2238
Stream size : 64.7 KiB (0%)
Language : English
Default : Yes
Forced : No

Text #2
ID : 4
Format : UTF-8
Codec ID : S_TEXT/UTF8
Codec ID/Info : UTF-8 Plain Text
Duration : 2 h 24 min
Bit rate : 128 b/s
Frame rate : 0.261 FPS
Count of elements : 2260
Stream size : 136 KiB (0%)
Language : Chinese
Default : No
Forced : No

Text #3
ID : 5
Format : UTF-8
Codec ID : S_TEXT/UTF8
Codec ID/Info : UTF-8 Plain Text
Duration : 2 h 24 min
Bit rate : 101 b/s
Frame rate : 0.203 FPS
Count of elements : 1759
Stream size : 108 KiB (0%)
Title : Traditional
Language : Chinese
Default : No
Forced : No

Text #4
ID : 6
Format : UTF-8
Codec ID : S_TEXT/UTF8
Codec ID/Info : UTF-8 Plain Text
Duration : 2 h 17 min
Bit rate : 43 b/s
Frame rate : 0.146 FPS
Count of elements : 1207
Stream size : 43.8 KiB (0%)
Language : Dutch
Default : No
Forced : No

Text #5
ID : 7
Format : UTF-8
Codec ID : S_TEXT/UTF8
Codec ID/Info : UTF-8 Plain Text
Duration : 2 h 24 min
Bit rate : 59 b/s
Frame rate : 0.259 FPS
Count of elements : 2239
Stream size : 62.5 KiB (0%)
Language : English
Default : No
Forced : No

Text #6
ID : 8
Format : UTF-8
Codec ID : S_TEXT/UTF8
Codec ID/Info : UTF-8 Plain Text
Duration : 2 h 18 min
Bit rate : 64 b/s
Frame rate : 0.215 FPS
Count of elements : 1785
Stream size : 65.6 KiB (0%)
Language : French
Default : No
Forced : No

Text #7
ID : 9
Format : UTF-8
Codec ID : S_TEXT/UTF8
Codec ID/Info : UTF-8 Plain Text
Duration : 2 h 23 min
Bit rate : 56 b/s
Frame rate : 0.259 FPS
Count of elements : 2238
Stream size : 60.0 KiB (0%)
Language : Indonesian
Default : No
Forced : No

Text #8
ID : 10
Format : UTF-8
Codec ID : S_TEXT/UTF8
Codec ID/Info : UTF-8 Plain Text
Duration : 2 h 24 min
Bit rate : 51 b/s
Frame rate : 0.203 FPS
Count of elements : 1758
Stream size : 54.1 KiB (0%)
Language : Italian
Default : No
Forced : No

Text #9
ID : 11
Format : UTF-8
Codec ID : S_TEXT/UTF8
Codec ID/Info : UTF-8 Plain Text
Duration : 2 h 23 min
Bit rate : 73 b/s
Frame rate : 0.262 FPS
Count of elements : 2260
Stream size : 77.4 KiB (0%)
Language : Malay
Default : No
Forced : No

Text #10
ID : 12
Format : UTF-8
Codec ID : S_TEXT/UTF8
Codec ID/Info : UTF-8 Plain Text
Duration : 2 h 17 min
Bit rate : 63 b/s
Frame rate : 0.212 FPS
Count of elements : 1748
Stream size : 63.7 KiB (0%)
Language : Polish
Default : No
Forced : No

Text #11
ID : 13
Format : UTF-8
Codec ID : S_TEXT/UTF8
Codec ID/Info : UTF-8 Plain Text
Duration : 2 h 24 min
Bit rate : 50 b/s
Frame rate : 0.202 FPS
Count of elements : 1750
Stream size : 53.1 KiB (0%)
Title : Brazil
Language : Portuguese
Default : No
Forced : No

Text #12
ID : 14
Format : UTF-8
Codec ID : S_TEXT/UTF8
Codec ID/Info : UTF-8 Plain Text
Duration : 2 h 24 min
Bit rate : 55 b/s
Frame rate : 0.203 FPS
Count of elements : 1758
Stream size : 58.2 KiB (0%)
Title : Latino
Language : Spanish
Default : No
Forced : No

Text #13
ID : 15
Format : UTF-8
Codec ID : S_TEXT/UTF8
Codec ID/Info : UTF-8 Plain Text
Duration : 2 h 17 min
Bit rate : 63 b/s
Frame rate : 0.214 FPS
Count of elements : 1763
Stream size : 64.3 KiB (0%)
Language : Swedish
Default : No
Forced : No

Text #14
ID : 16
Format : UTF-8
Codec ID : S_TEXT/UTF8
Codec ID/Info : UTF-8 Plain Text
Duration : 2 h 24 min
Bit rate : 253 b/s
Frame rate : 0.204 FPS
Count of elements : 1768
Stream size : 269 KiB (0%)
Language : Thai
Default : No
Forced : No

Text #15
ID : 17
Format : UTF-8
Codec ID : S_TEXT/UTF8
Codec ID/Info : UTF-8 Plain Text
Duration : 2 h 23 min
Bit rate : 100 b/s
Frame rate : 0.259 FPS
Count of elements : 2242
Stream size : 106 KiB (0%)
Language : Vietnamese
Default : No
Forced : No

[collapse]
Download Link(s)

Download

Direct download files get automatically deleted after a month or so. Posted on : 01/13/2024

[collapse]

You may also like...

error: nah :p~