Children of the Corn: Genesis (2011)

R | 1h 20min | Horror, Thriller | 17 March 2012 (Japan)

A young couple try to free an imprisoned child with catastrophic results.

Watch trailer

Media information

General
Format : Matroska
Format version : Version 4
File size : 1.23 GiB
Duration : 1 h 20 min
Overall bit rate : 2 186 kb/s
Movie name : Children.Of.The.Corn.Genesis.2011.1080p.10bit.BluRay.6CH.x265.HEVC

Video
ID : 1
Format : HEVC
Format/Info : High Efficiency Video Coding
Format profile : Main 10@L4@Main
Codec ID : V_MPEGH/ISO/HEVC
Duration : 1 h 20 min
Bit rate : 1 897 kb/s
Width : 1 920 pixels
Height : 816 pixels
Display aspect ratio : 2.35:1
Frame rate mode : Variable
Frame rate : 23.976 FPS
Color space : YUV
Chroma subsampling : 4:2:0 (Type 0)
Bit depth : 10 bits
Bits/(Pixel*Frame) : 0.050
Stream size : 1.07 GiB (87%)
Default : Yes
Forced : No
Color range : Limited

Audio
ID : 2
Format : AAC LC
Codec ID : A_AAC-2
Duration : 1 h 20 min
Bit rate : 288 kb/s
Channel(s) : 6 channels
Channel layout : L R C Cb Lb Rb
Sampling rate : 48.0 kHz
Frame rate : 46.875 FPS (1024 SPF)
Compression mode : Lossy
Stream size : 165 MiB (13%)
Language : English
Default : Yes
Forced : No

Text
ID : 3
Format : UTF-8
Codec ID : S_TEXT/UTF8
Codec ID/Info : UTF-8 Plain Text
Duration : 1 h 18 min
Bit rate : 48 b/s
Count of elements : 819
Stream size : 27.5 KiB (0%)
Language : English
Default : Yes
Forced : No

[collapse]
Download Link(s)

Download

Direct download files get automatically deleted after a month or so. Posted on : 05/10/2021

[collapse]
Magnet Link

Magnet

Children.Of.The.Corn.VIII.Genesis.2011.1080p.BluRay.x264-UNTOUCHABLES-6.56 GB

[collapse]

Media information

General
Format : Matroska
Format version : Version 4
File size : 625 MiB
Duration : 1 h 20 min
Overall bit rate : 1 085 kb/s
Movie name : Children.Of.The.Corn.Genesis.2011.720p.10bit.BluRay.6CH.x265.HEVC

Video
ID : 1
Format : HEVC
Format/Info : High Efficiency Video Coding
Format profile : Main [email protected]@Main
Codec ID : V_MPEGH/ISO/HEVC
Duration : 1 h 20 min
Bit rate : 890 kb/s
Width : 1 280 pixels
Height : 544 pixels
Display aspect ratio : 2.35:1
Frame rate mode : Variable
Frame rate : 23.976 FPS
Color space : YUV
Chroma subsampling : 4:2:0 (Type 0)
Bit depth : 10 bits
Bits/(Pixel*Frame) : 0.053
Stream size : 513 MiB (82%)
Default : Yes
Forced : No
Color range : Limited

Audio
ID : 2
Format : AAC LC
Codec ID : A_AAC-2
Duration : 1 h 20 min
Bit rate : 192 kb/s
Channel(s) : 6 channels
Channel layout : L R C Cb Lb Rb
Sampling rate : 48.0 kHz
Frame rate : 46.875 FPS (1024 SPF)
Compression mode : Lossy
Stream size : 110 MiB (18%)
Language : English
Default : Yes
Forced : No

Text
ID : 3
Format : UTF-8
Codec ID : S_TEXT/UTF8
Codec ID/Info : UTF-8 Plain Text
Duration : 1 h 18 min
Bit rate : 48 b/s
Count of elements : 819
Stream size : 27.5 KiB (0%)
Language : English
Default : Yes
Forced : No

[collapse]
Download Link(s)

Download

Direct download files get automatically deleted after a month or so. Posted on : 05/10/2021

[collapse]
Magnet Link

Magnet

Children.Of.The.Corn.VIII.Genesis.2011.1080p.BluRay.x264-UNTOUCHABLES-6.56 GB

[collapse]

You may also like...

error: nah :p~