Children of the Corn 666: Isaac’s Return (1999)

R | 1h 22min | Horror, Mystery, Thriller | Video 19 October 1999

As a teenage girl comes to Gatlin to find her biological mother, the town’s infamous cult plots a comeback as their leader, Isaac, awakens from a coma.

Watch trailer

Media information

General
Format : Matroska
Format version : Version 4
File size : 1.22 GiB
Duration : 1 h 21 min
Overall bit rate : 2 126 kb/s
Movie name : Children.of.the.Corn.666.Isaacs.Return.1999.1080p.10bit.BluRay.2CH.x265.HEVC

Video
ID : 1
Format : HEVC
Format/Info : High Efficiency Video Coding
Format profile : Main 10@L4@Main
Codec ID : V_MPEGH/ISO/HEVC
Duration : 1 h 21 min
Bit rate : 1 898 kb/s
Width : 1 920 pixels
Height : 1 040 pixels
Display aspect ratio : 1.85:1
Frame rate mode : Variable
Frame rate : 23.976 FPS
Color space : YUV
Chroma subsampling : 4:2:0 (Type 0)
Bit depth : 10 bits
Bits/(Pixel*Frame) : 0.040
Stream size : 1.09 GiB (89%)
Default : Yes
Forced : No
Color range : Limited

Audio
ID : 2
Format : AAC LC
Codec ID : A_AAC-2
Duration : 1 h 21 min
Bit rate : 225 kb/s
Channel(s) : 2 channels
Channel layout : L R
Sampling rate : 48.0 kHz
Frame rate : 46.875 FPS (1024 SPF)
Compression mode : Lossy
Stream size : 132 MiB (11%)
Language : English
Default : Yes
Forced : No

Text
ID : 3
Format : UTF-8
Codec ID : S_TEXT/UTF8
Codec ID/Info : UTF-8 Plain Text
Duration : 1 h 19 min
Bit rate : 40 b/s
Count of elements : 675
Stream size : 23.5 KiB (0%)
Language : English
Default : Yes
Forced : No

[collapse]
Download Link(s)

Download

Direct download files get automatically deleted after a month or so. Posted on : 05/09/2021

[collapse]
Magnet Link

Magnet

Children.of.the.Corn.666.Isaacs.Return.1999.1080p.BluRay.x264-SADPANDA-7.94 GB

[collapse]

Media information

General
Format : Matroska
Format version : Version 4
File size : 640 MiB
Duration : 1 h 21 min
Overall bit rate : 1 093 kb/s
Movie name : Children.of.the.Corn.666.Isaacs.Return.1999.720p.10bit.BluRay.2CH.x265.HEVC

Video
ID : 1
Format : HEVC
Format/Info : High Efficiency Video Coding
Format profile : Main [email protected]@Main
Codec ID : V_MPEGH/ISO/HEVC
Duration : 1 h 21 min
Bit rate : 898 kb/s
Width : 1 280 pixels
Height : 696 pixels
Display aspect ratio : 1.85:1
Frame rate mode : Variable
Frame rate : 23.976 FPS
Color space : YUV
Chroma subsampling : 4:2:0 (Type 0)
Bit depth : 10 bits
Bits/(Pixel*Frame) : 0.042
Stream size : 526 MiB (82%)
Default : Yes
Forced : No
Color range : Limited

Audio
ID : 2
Format : AAC LC
Codec ID : A_AAC-2
Duration : 1 h 21 min
Bit rate : 192 kb/s
Channel(s) : 2 channels
Channel layout : L R
Sampling rate : 48.0 kHz
Frame rate : 46.875 FPS (1024 SPF)
Compression mode : Lossy
Stream size : 113 MiB (18%)
Language : English
Default : Yes
Forced : No

Text
ID : 3
Format : UTF-8
Codec ID : S_TEXT/UTF8
Codec ID/Info : UTF-8 Plain Text
Duration : 1 h 19 min
Bit rate : 40 b/s
Count of elements : 675
Stream size : 23.5 KiB (0%)
Language : English
Default : Yes
Forced : No

[collapse]
Download Link(s)

Download

Direct download files get automatically deleted after a month or so. Posted on : 05/09/2021

[collapse]
Magnet Link

Magnet

Children.of.the.Corn.666.Isaacs.Return.1999.1080p.BluRay.x264-SADPANDA-7.94 GB

[collapse]

You may also like...

error: nah :p~