Challengers (2024)

R | 2h 11min | Drama, Romance, Sport

Tashi, a former tennis prodigy turned coach, turned her husband into a champion. But to overcome a losing streak, he needs to face his ex-best friend and Tashi’s ex-boyfriend.

Watch trailer

Media information

General
Format : Matroska
Format version : Version 4
File size : 2.29 GiB
Duration : 2 h 11 min
Overall bit rate : 2 488 kb/s
Frame rate : 23.976 FPS
Movie name : Challengers.2024.1080p.10bit.WEBRip.6CH.x265.HEVC

Video
ID : 1
Format : HEVC
Format/Info : High Efficiency Video Coding
Format profile : Main 10@L4@Main
Codec ID : V_MPEGH/ISO/HEVC
Duration : 2 h 11 min
Bit rate : 2 287 kb/s
Width : 1 920 pixels
Height : 1 040 pixels
Display aspect ratio : 1.85:1
Frame rate mode : Constant
Frame rate : 23.976 (24000/1001) FPS
Color space : YUV
Chroma subsampling : 4:2:0
Bit depth : 10 bits
Bits/(Pixel*Frame) : 0.048
Stream size : 2.10 GiB (92%)
Default : Yes
Forced : No
Color range : Limited
Color primaries : BT.709
Transfer characteristics : BT.709
Matrix coefficients : BT.709

Audio
ID : 2
Format : AAC LC SBR
Commercial name : HE-AAC
Format settings : Explicit
Codec ID : A_AAC-2
Duration : 2 h 11 min
Bit rate : 196 kb/s
Channel(s) : 6 channels
Channel layout : C L R Ls Rs LFE
Sampling rate : 48.0 kHz
Frame rate : 23.438 FPS (2048 SPF)
Compression mode : Lossy
Delay relative to video : 23 ms
Stream size : 184 MiB (8%)
Language : English
Default : Yes
Forced : No

Text #1
ID : 3
Format : UTF-8
Codec ID : S_TEXT/UTF8
Codec ID/Info : UTF-8 Plain Text
Duration : 2 h 5 min
Bit rate : 50 b/s
Frame rate : 0.201 FPS
Count of elements : 1520
Stream size : 46.2 KiB (0%)
Language : English
Default : No
Forced : No

Text #2
ID : 4
Format : UTF-8
Codec ID : S_TEXT/UTF8
Codec ID/Info : UTF-8 Plain Text
Duration : 2 h 7 min
Bit rate : 60 b/s
Frame rate : 0.238 FPS
Count of elements : 1815
Stream size : 56.7 KiB (0%)
Title : SDH
Language : English
Default : Yes
Forced : No

Text #3
ID : 5
Format : UTF-8
Codec ID : S_TEXT/UTF8
Codec ID/Info : UTF-8 Plain Text
Duration : 2 h 10 min
Bit rate : 64 b/s
Frame rate : 0.180 FPS
Count of elements : 1406
Stream size : 61.4 KiB (0%)
Language : Bulgarian
Default : No
Forced : No

Text #4
ID : 6
Format : UTF-8
Codec ID : S_TEXT/UTF8
Codec ID/Info : UTF-8 Plain Text
Duration : 2 h 10 min
Bit rate : 35 b/s
Frame rate : 0.180 FPS
Count of elements : 1407
Stream size : 34.0 KiB (0%)
Title : Traditional
Language : Chinese (Traditional)
Default : No
Forced : No

Text #5
ID : 7
Format : UTF-8
Codec ID : S_TEXT/UTF8
Codec ID/Info : UTF-8 Plain Text
Duration : 2 h 10 min
Bit rate : 41 b/s
Frame rate : 0.178 FPS
Count of elements : 1385
Stream size : 40.0 KiB (0%)
Language : Czech
Default : No
Forced : No

Text #6
ID : 8
Format : UTF-8
Codec ID : S_TEXT/UTF8
Codec ID/Info : UTF-8 Plain Text
Duration : 2 h 10 min
Bit rate : 37 b/s
Frame rate : 0.117 FPS
Count of elements : 912
Stream size : 36.1 KiB (0%)
Language : Danish
Default : No
Forced : No

Text #7
ID : 9
Format : UTF-8
Codec ID : S_TEXT/UTF8
Codec ID/Info : UTF-8 Plain Text
Duration : 2 h 10 min
Bit rate : 43 b/s
Frame rate : 0.141 FPS
Count of elements : 1102
Stream size : 41.6 KiB (0%)
Language : German (DE)
Default : No
Forced : No

Text #8
ID : 10
Format : UTF-8
Codec ID : S_TEXT/UTF8
Codec ID/Info : UTF-8 Plain Text
Duration : 2 h 10 min
Bit rate : 64 b/s
Frame rate : 0.177 FPS
Count of elements : 1385
Stream size : 61.3 KiB (0%)
Language : Greek
Default : No
Forced : No

Text #9
ID : 11
Format : UTF-8
Codec ID : S_TEXT/UTF8
Codec ID/Info : UTF-8 Plain Text
Duration : 2 h 10 min
Bit rate : 42 b/s
Frame rate : 0.177 FPS
Count of elements : 1385
Stream size : 40.8 KiB (0%)
Title : Latin American
Language : Spanish (Latin America)
Default : No
Forced : No

Text #10
ID : 12
Format : UTF-8
Codec ID : S_TEXT/UTF8
Codec ID/Info : UTF-8 Plain Text
Duration : 2 h 10 min
Bit rate : 39 b/s
Frame rate : 0.171 FPS
Count of elements : 1334
Stream size : 38.0 KiB (0%)
Language : Spanish (ES)
Default : No
Forced : No

Text #11
ID : 13
Format : UTF-8
Codec ID : S_TEXT/UTF8
Codec ID/Info : UTF-8 Plain Text
Duration : 2 h 10 min
Bit rate : 40 b/s
Frame rate : 0.170 FPS
Count of elements : 1325
Stream size : 39.0 KiB (0%)
Language : Estonian
Default : No
Forced : No

Text #12
ID : 14
Format : UTF-8
Codec ID : S_TEXT/UTF8
Codec ID/Info : UTF-8 Plain Text
Duration : 2 h 10 min
Bit rate : 38 b/s
Frame rate : 0.183 FPS
Count of elements : 1424
Stream size : 37.1 KiB (0%)
Language : Finnish
Default : No
Forced : No

Text #13
ID : 15
Format : UTF-8
Codec ID : S_TEXT/UTF8
Codec ID/Info : UTF-8 Plain Text
Duration : 2 h 10 min
Bit rate : 49 b/s
Frame rate : 0.211 FPS
Count of elements : 1645
Stream size : 47.2 KiB (0%)
Title : Canadian
Language : French (CA)
Default : No
Forced : No

Text #14
ID : 16
Format : UTF-8
Codec ID : S_TEXT/UTF8
Codec ID/Info : UTF-8 Plain Text
Duration : 2 h 6 min
Bit rate : 35 b/s
Frame rate : 0.162 FPS
Count of elements : 1226
Stream size : 32.4 KiB (0%)
Language : French (FR)
Default : No
Forced : No

Text #15
ID : 17
Format : UTF-8
Codec ID : S_TEXT/UTF8
Codec ID/Info : UTF-8 Plain Text
Duration : 2 h 10 min
Bit rate : 66 b/s
Frame rate : 0.178 FPS
Count of elements : 1386
Stream size : 63.2 KiB (0%)
Language : Hebrew
Default : No
Forced : No

Text #16
ID : 18
Format : UTF-8
Codec ID : S_TEXT/UTF8
Codec ID/Info : UTF-8 Plain Text
Duration : 2 h 10 min
Bit rate : 102 b/s
Frame rate : 0.180 FPS
Count of elements : 1407
Stream size : 97.3 KiB (0%)
Language : Hindi
Default : No
Forced : No

Text #17
ID : 19
Format : UTF-8
Codec ID : S_TEXT/UTF8
Codec ID/Info : UTF-8 Plain Text
Duration : 2 h 10 min
Bit rate : 35 b/s
Frame rate : 0.124 FPS
Count of elements : 972
Stream size : 34.3 KiB (0%)
Language : Hungarian
Default : No
Forced : No

Text #18
ID : 20
Format : UTF-8
Codec ID : S_TEXT/UTF8
Codec ID/Info : UTF-8 Plain Text
Duration : 2 h 10 min
Bit rate : 41 b/s
Frame rate : 0.175 FPS
Count of elements : 1366
Stream size : 39.5 KiB (0%)
Language : Indonesian
Default : No
Forced : No

Text #19
ID : 21
Format : UTF-8
Codec ID : S_TEXT/UTF8
Codec ID/Info : UTF-8 Plain Text
Duration : 2 h 6 min
Bit rate : 40 b/s
Frame rate : 0.141 FPS
Count of elements : 1066
Stream size : 37.5 KiB (0%)
Language : Italian
Default : No
Forced : No

Text #20
ID : 22
Format : UTF-8
Codec ID : S_TEXT/UTF8
Codec ID/Info : UTF-8 Plain Text
Duration : 2 h 10 min
Bit rate : 33 b/s
Frame rate : 0.154 FPS
Count of elements : 1203
Stream size : 31.6 KiB (0%)
Language : Japanese
Default : No
Forced : No

Text #21
ID : 23
Format : UTF-8
Codec ID : S_TEXT/UTF8
Codec ID/Info : UTF-8 Plain Text
Duration : 2 h 10 min
Bit rate : 36 b/s
Frame rate : 0.174 FPS
Count of elements : 1355
Stream size : 35.2 KiB (0%)
Language : Korean
Default : No
Forced : No

Text #22
ID : 24
Format : UTF-8
Codec ID : S_TEXT/UTF8
Codec ID/Info : UTF-8 Plain Text
Duration : 2 h 10 min
Bit rate : 45 b/s
Frame rate : 0.179 FPS
Count of elements : 1400
Stream size : 43.1 KiB (0%)
Language : Lithuanian
Default : No
Forced : No

Text #23
ID : 25
Format : UTF-8
Codec ID : S_TEXT/UTF8
Codec ID/Info : UTF-8 Plain Text
Duration : 2 h 10 min
Bit rate : 41 b/s
Frame rate : 0.195 FPS
Count of elements : 1519
Stream size : 39.1 KiB (0%)
Language : Latvian
Default : No
Forced : No

Text #24
ID : 26
Format : UTF-8
Codec ID : S_TEXT/UTF8
Codec ID/Info : UTF-8 Plain Text
Duration : 2 h 10 min
Bit rate : 44 b/s
Frame rate : 0.191 FPS
Count of elements : 1493
Stream size : 42.4 KiB (0%)
Language : Malay
Default : No
Forced : No

Text #25
ID : 27
Format : UTF-8
Codec ID : S_TEXT/UTF8
Codec ID/Info : UTF-8 Plain Text
Duration : 2 h 10 min
Bit rate : 32 b/s
Frame rate : 0.118 FPS
Count of elements : 917
Stream size : 31.4 KiB (0%)
Language : Dutch (NL)
Default : No
Forced : No

Text #26
ID : 28
Format : UTF-8
Codec ID : S_TEXT/UTF8
Codec ID/Info : UTF-8 Plain Text
Duration : 2 h 10 min
Bit rate : 38 b/s
Frame rate : 0.127 FPS
Count of elements : 988
Stream size : 37.0 KiB (0%)
Language : Norwegian
Default : No
Forced : No

Text #27
ID : 29
Format : UTF-8
Codec ID : S_TEXT/UTF8
Codec ID/Info : UTF-8 Plain Text
Duration : 2 h 10 min
Bit rate : 39 b/s
Frame rate : 0.176 FPS
Count of elements : 1378
Stream size : 37.3 KiB (0%)
Language : Polish
Default : No
Forced : No

Text #28
ID : 30
Format : UTF-8
Codec ID : S_TEXT/UTF8
Codec ID/Info : UTF-8 Plain Text
Duration : 2 h 10 min
Bit rate : 40 b/s
Frame rate : 0.175 FPS
Count of elements : 1366
Stream size : 38.8 KiB (0%)
Title : Brazilian
Language : Portuguese (BR)
Default : No
Forced : No

Text #29
ID : 31
Format : UTF-8
Codec ID : S_TEXT/UTF8
Codec ID/Info : UTF-8 Plain Text
Duration : 2 h 10 min
Bit rate : 44 b/s
Frame rate : 0.174 FPS
Count of elements : 1358
Stream size : 42.4 KiB (0%)
Language : Portuguese (PT)
Default : No
Forced : No

Text #30
ID : 32
Format : UTF-8
Codec ID : S_TEXT/UTF8
Codec ID/Info : UTF-8 Plain Text
Duration : 2 h 10 min
Bit rate : 33 b/s
Frame rate : 0.133 FPS
Count of elements : 1039
Stream size : 32.0 KiB (0%)
Language : Slovak
Default : No
Forced : No

Text #31
ID : 33
Format : UTF-8
Codec ID : S_TEXT/UTF8
Codec ID/Info : UTF-8 Plain Text
Duration : 2 h 10 min
Bit rate : 38 b/s
Frame rate : 0.132 FPS
Count of elements : 1031
Stream size : 36.6 KiB (0%)
Language : Slovenian
Default : No
Forced : No

Text #32
ID : 34
Format : UTF-8
Codec ID : S_TEXT/UTF8
Codec ID/Info : UTF-8 Plain Text
Duration : 2 h 10 min
Bit rate : 36 b/s
Frame rate : 0.150 FPS
Count of elements : 1172
Stream size : 34.5 KiB (0%)
Language : Swedish
Default : No
Forced : No

Text #33
ID : 35
Format : UTF-8
Codec ID : S_TEXT/UTF8
Codec ID/Info : UTF-8 Plain Text
Duration : 2 h 10 min
Bit rate : 120 b/s
Frame rate : 0.180 FPS
Count of elements : 1407
Stream size : 115 KiB (0%)
Language : Tamil
Default : No
Forced : No

Text #34
ID : 36
Format : UTF-8
Codec ID : S_TEXT/UTF8
Codec ID/Info : UTF-8 Plain Text
Duration : 2 h 10 min
Bit rate : 105 b/s
Frame rate : 0.180 FPS
Count of elements : 1407
Stream size : 100 KiB (0%)
Language : Telugu (IN)
Default : No
Forced : No

Text #35
ID : 37
Format : UTF-8
Codec ID : S_TEXT/UTF8
Codec ID/Info : UTF-8 Plain Text
Duration : 2 h 10 min
Bit rate : 98 b/s
Frame rate : 0.178 FPS
Count of elements : 1391
Stream size : 93.7 KiB (0%)
Language : Thai
Default : No
Forced : No

Text #36
ID : 38
Format : UTF-8
Codec ID : S_TEXT/UTF8
Codec ID/Info : UTF-8 Plain Text
Duration : 2 h 10 min
Bit rate : 44 b/s
Frame rate : 0.174 FPS
Count of elements : 1361
Stream size : 42.3 KiB (0%)
Language : Turkish
Default : No
Forced : No

Text #37
ID : 39
Format : UTF-8
Codec ID : S_TEXT/UTF8
Codec ID/Info : UTF-8 Plain Text
Duration : 2 h 10 min
Bit rate : 74 b/s
Frame rate : 0.204 FPS
Count of elements : 1592
Stream size : 71.1 KiB (0%)
Language : Ukrainian
Default : No
Forced : No

Text #38
ID : 40
Format : UTF-8
Codec ID : S_TEXT/UTF8
Codec ID/Info : UTF-8 Plain Text
Duration : 2 h 10 min
Bit rate : 50 b/s
Frame rate : 0.177 FPS
Count of elements : 1382
Stream size : 48.5 KiB (0%)
Language : Vietnamese
Default : No
Forced : No

Text #39
ID : 41
Format : UTF-8
Codec ID : S_TEXT/UTF8
Codec ID/Info : UTF-8 Plain Text
Duration : 2 h 10 min
Bit rate : 35 b/s
Frame rate : 0.180 FPS
Count of elements : 1408
Stream size : 33.6 KiB (0%)
Title : Traditional
Language : Cantonese (Hant)
Default : No
Forced : No

[collapse]
Download Link(s)

Download

Direct download files get automatically deleted after a month or so. Posted on : 05/18/2024

[collapse]

Media information

General
Format : Matroska
Format version : Version 4
File size : 982 MiB
Duration : 2 h 11 min
Overall bit rate : 1 043 kb/s
Frame rate : 23.976 FPS
Movie name : Challengers.2024.720p.10bit.WEBRip.6CH.x265.HEVC

Video
ID : 1
Format : HEVC
Format/Info : High Efficiency Video Coding
Format profile : Main [email protected]@Main
Codec ID : V_MPEGH/ISO/HEVC
Duration : 2 h 11 min
Bit rate : 842 kb/s
Width : 1 280 pixels
Height : 696 pixels
Display aspect ratio : 1.85:1
Frame rate mode : Constant
Frame rate : 23.976 (24000/1001) FPS
Color space : YUV
Chroma subsampling : 4:2:0
Bit depth : 10 bits
Bits/(Pixel*Frame) : 0.039
Stream size : 793 MiB (81%)
Default : Yes
Forced : No
Color range : Limited
Color primaries : BT.709
Transfer characteristics : BT.709
Matrix coefficients : BT.709

Audio
ID : 2
Format : AAC LC SBR
Commercial name : HE-AAC
Format settings : Explicit
Codec ID : A_AAC-2
Duration : 2 h 11 min
Bit rate : 196 kb/s
Channel(s) : 6 channels
Channel layout : C L R Ls Rs LFE
Sampling rate : 48.0 kHz
Frame rate : 23.438 FPS (2048 SPF)
Compression mode : Lossy
Delay relative to video : 23 ms
Stream size : 184 MiB (19%)
Language : English
Default : Yes
Forced : No

Text #1
ID : 3
Format : UTF-8
Codec ID : S_TEXT/UTF8
Codec ID/Info : UTF-8 Plain Text
Duration : 2 h 5 min
Bit rate : 50 b/s
Frame rate : 0.201 FPS
Count of elements : 1520
Stream size : 46.2 KiB (0%)
Language : English
Default : No
Forced : No

Text #2
ID : 4
Format : UTF-8
Codec ID : S_TEXT/UTF8
Codec ID/Info : UTF-8 Plain Text
Duration : 2 h 7 min
Bit rate : 60 b/s
Frame rate : 0.238 FPS
Count of elements : 1815
Stream size : 56.7 KiB (0%)
Title : SDH
Language : English
Default : Yes
Forced : No

Text #3
ID : 5
Format : UTF-8
Codec ID : S_TEXT/UTF8
Codec ID/Info : UTF-8 Plain Text
Duration : 2 h 10 min
Bit rate : 64 b/s
Frame rate : 0.180 FPS
Count of elements : 1406
Stream size : 61.4 KiB (0%)
Language : Bulgarian
Default : No
Forced : No

Text #4
ID : 6
Format : UTF-8
Codec ID : S_TEXT/UTF8
Codec ID/Info : UTF-8 Plain Text
Duration : 2 h 10 min
Bit rate : 35 b/s
Frame rate : 0.180 FPS
Count of elements : 1407
Stream size : 34.0 KiB (0%)
Title : Traditional
Language : Chinese (Traditional)
Default : No
Forced : No

Text #5
ID : 7
Format : UTF-8
Codec ID : S_TEXT/UTF8
Codec ID/Info : UTF-8 Plain Text
Duration : 2 h 10 min
Bit rate : 41 b/s
Frame rate : 0.178 FPS
Count of elements : 1385
Stream size : 40.0 KiB (0%)
Language : Czech
Default : No
Forced : No

Text #6
ID : 8
Format : UTF-8
Codec ID : S_TEXT/UTF8
Codec ID/Info : UTF-8 Plain Text
Duration : 2 h 10 min
Bit rate : 37 b/s
Frame rate : 0.117 FPS
Count of elements : 912
Stream size : 36.1 KiB (0%)
Language : Danish
Default : No
Forced : No

Text #7
ID : 9
Format : UTF-8
Codec ID : S_TEXT/UTF8
Codec ID/Info : UTF-8 Plain Text
Duration : 2 h 10 min
Bit rate : 43 b/s
Frame rate : 0.141 FPS
Count of elements : 1102
Stream size : 41.6 KiB (0%)
Language : German (DE)
Default : No
Forced : No

Text #8
ID : 10
Format : UTF-8
Codec ID : S_TEXT/UTF8
Codec ID/Info : UTF-8 Plain Text
Duration : 2 h 10 min
Bit rate : 64 b/s
Frame rate : 0.177 FPS
Count of elements : 1385
Stream size : 61.3 KiB (0%)
Language : Greek
Default : No
Forced : No

Text #9
ID : 11
Format : UTF-8
Codec ID : S_TEXT/UTF8
Codec ID/Info : UTF-8 Plain Text
Duration : 2 h 10 min
Bit rate : 42 b/s
Frame rate : 0.177 FPS
Count of elements : 1385
Stream size : 40.8 KiB (0%)
Title : Latin American
Language : Spanish (Latin America)
Default : No
Forced : No

Text #10
ID : 12
Format : UTF-8
Codec ID : S_TEXT/UTF8
Codec ID/Info : UTF-8 Plain Text
Duration : 2 h 10 min
Bit rate : 39 b/s
Frame rate : 0.171 FPS
Count of elements : 1334
Stream size : 38.0 KiB (0%)
Language : Spanish (ES)
Default : No
Forced : No

Text #11
ID : 13
Format : UTF-8
Codec ID : S_TEXT/UTF8
Codec ID/Info : UTF-8 Plain Text
Duration : 2 h 10 min
Bit rate : 40 b/s
Frame rate : 0.170 FPS
Count of elements : 1325
Stream size : 39.0 KiB (0%)
Language : Estonian
Default : No
Forced : No

Text #12
ID : 14
Format : UTF-8
Codec ID : S_TEXT/UTF8
Codec ID/Info : UTF-8 Plain Text
Duration : 2 h 10 min
Bit rate : 38 b/s
Frame rate : 0.183 FPS
Count of elements : 1424
Stream size : 37.1 KiB (0%)
Language : Finnish
Default : No
Forced : No

Text #13
ID : 15
Format : UTF-8
Codec ID : S_TEXT/UTF8
Codec ID/Info : UTF-8 Plain Text
Duration : 2 h 10 min
Bit rate : 49 b/s
Frame rate : 0.211 FPS
Count of elements : 1645
Stream size : 47.2 KiB (0%)
Title : Canadian
Language : French (CA)
Default : No
Forced : No

Text #14
ID : 16
Format : UTF-8
Codec ID : S_TEXT/UTF8
Codec ID/Info : UTF-8 Plain Text
Duration : 2 h 6 min
Bit rate : 35 b/s
Frame rate : 0.162 FPS
Count of elements : 1226
Stream size : 32.4 KiB (0%)
Language : French (FR)
Default : No
Forced : No

Text #15
ID : 17
Format : UTF-8
Codec ID : S_TEXT/UTF8
Codec ID/Info : UTF-8 Plain Text
Duration : 2 h 10 min
Bit rate : 66 b/s
Frame rate : 0.178 FPS
Count of elements : 1386
Stream size : 63.2 KiB (0%)
Language : Hebrew
Default : No
Forced : No

Text #16
ID : 18
Format : UTF-8
Codec ID : S_TEXT/UTF8
Codec ID/Info : UTF-8 Plain Text
Duration : 2 h 10 min
Bit rate : 102 b/s
Frame rate : 0.180 FPS
Count of elements : 1407
Stream size : 97.3 KiB (0%)
Language : Hindi
Default : No
Forced : No

Text #17
ID : 19
Format : UTF-8
Codec ID : S_TEXT/UTF8
Codec ID/Info : UTF-8 Plain Text
Duration : 2 h 10 min
Bit rate : 35 b/s
Frame rate : 0.124 FPS
Count of elements : 972
Stream size : 34.3 KiB (0%)
Language : Hungarian
Default : No
Forced : No

Text #18
ID : 20
Format : UTF-8
Codec ID : S_TEXT/UTF8
Codec ID/Info : UTF-8 Plain Text
Duration : 2 h 10 min
Bit rate : 41 b/s
Frame rate : 0.175 FPS
Count of elements : 1366
Stream size : 39.5 KiB (0%)
Language : Indonesian
Default : No
Forced : No

Text #19
ID : 21
Format : UTF-8
Codec ID : S_TEXT/UTF8
Codec ID/Info : UTF-8 Plain Text
Duration : 2 h 6 min
Bit rate : 40 b/s
Frame rate : 0.141 FPS
Count of elements : 1066
Stream size : 37.5 KiB (0%)
Language : Italian
Default : No
Forced : No

Text #20
ID : 22
Format : UTF-8
Codec ID : S_TEXT/UTF8
Codec ID/Info : UTF-8 Plain Text
Duration : 2 h 10 min
Bit rate : 33 b/s
Frame rate : 0.154 FPS
Count of elements : 1203
Stream size : 31.6 KiB (0%)
Language : Japanese
Default : No
Forced : No

Text #21
ID : 23
Format : UTF-8
Codec ID : S_TEXT/UTF8
Codec ID/Info : UTF-8 Plain Text
Duration : 2 h 10 min
Bit rate : 36 b/s
Frame rate : 0.174 FPS
Count of elements : 1355
Stream size : 35.2 KiB (0%)
Language : Korean
Default : No
Forced : No

Text #22
ID : 24
Format : UTF-8
Codec ID : S_TEXT/UTF8
Codec ID/Info : UTF-8 Plain Text
Duration : 2 h 10 min
Bit rate : 45 b/s
Frame rate : 0.179 FPS
Count of elements : 1400
Stream size : 43.1 KiB (0%)
Language : Lithuanian
Default : No
Forced : No

Text #23
ID : 25
Format : UTF-8
Codec ID : S_TEXT/UTF8
Codec ID/Info : UTF-8 Plain Text
Duration : 2 h 10 min
Bit rate : 41 b/s
Frame rate : 0.195 FPS
Count of elements : 1519
Stream size : 39.1 KiB (0%)
Language : Latvian
Default : No
Forced : No

Text #24
ID : 26
Format : UTF-8
Codec ID : S_TEXT/UTF8
Codec ID/Info : UTF-8 Plain Text
Duration : 2 h 10 min
Bit rate : 44 b/s
Frame rate : 0.191 FPS
Count of elements : 1493
Stream size : 42.4 KiB (0%)
Language : Malay
Default : No
Forced : No

Text #25
ID : 27
Format : UTF-8
Codec ID : S_TEXT/UTF8
Codec ID/Info : UTF-8 Plain Text
Duration : 2 h 10 min
Bit rate : 32 b/s
Frame rate : 0.118 FPS
Count of elements : 917
Stream size : 31.4 KiB (0%)
Language : Dutch (NL)
Default : No
Forced : No

Text #26
ID : 28
Format : UTF-8
Codec ID : S_TEXT/UTF8
Codec ID/Info : UTF-8 Plain Text
Duration : 2 h 10 min
Bit rate : 38 b/s
Frame rate : 0.127 FPS
Count of elements : 988
Stream size : 37.0 KiB (0%)
Language : Norwegian
Default : No
Forced : No

Text #27
ID : 29
Format : UTF-8
Codec ID : S_TEXT/UTF8
Codec ID/Info : UTF-8 Plain Text
Duration : 2 h 10 min
Bit rate : 39 b/s
Frame rate : 0.176 FPS
Count of elements : 1378
Stream size : 37.3 KiB (0%)
Language : Polish
Default : No
Forced : No

Text #28
ID : 30
Format : UTF-8
Codec ID : S_TEXT/UTF8
Codec ID/Info : UTF-8 Plain Text
Duration : 2 h 10 min
Bit rate : 40 b/s
Frame rate : 0.175 FPS
Count of elements : 1366
Stream size : 38.8 KiB (0%)
Title : Brazilian
Language : Portuguese (BR)
Default : No
Forced : No

Text #29
ID : 31
Format : UTF-8
Codec ID : S_TEXT/UTF8
Codec ID/Info : UTF-8 Plain Text
Duration : 2 h 10 min
Bit rate : 44 b/s
Frame rate : 0.174 FPS
Count of elements : 1358
Stream size : 42.4 KiB (0%)
Language : Portuguese (PT)
Default : No
Forced : No

Text #30
ID : 32
Format : UTF-8
Codec ID : S_TEXT/UTF8
Codec ID/Info : UTF-8 Plain Text
Duration : 2 h 10 min
Bit rate : 33 b/s
Frame rate : 0.133 FPS
Count of elements : 1039
Stream size : 32.0 KiB (0%)
Language : Slovak
Default : No
Forced : No

Text #31
ID : 33
Format : UTF-8
Codec ID : S_TEXT/UTF8
Codec ID/Info : UTF-8 Plain Text
Duration : 2 h 10 min
Bit rate : 38 b/s
Frame rate : 0.132 FPS
Count of elements : 1031
Stream size : 36.6 KiB (0%)
Language : Slovenian
Default : No
Forced : No

Text #32
ID : 34
Format : UTF-8
Codec ID : S_TEXT/UTF8
Codec ID/Info : UTF-8 Plain Text
Duration : 2 h 10 min
Bit rate : 36 b/s
Frame rate : 0.150 FPS
Count of elements : 1172
Stream size : 34.5 KiB (0%)
Language : Swedish
Default : No
Forced : No

Text #33
ID : 35
Format : UTF-8
Codec ID : S_TEXT/UTF8
Codec ID/Info : UTF-8 Plain Text
Duration : 2 h 10 min
Bit rate : 120 b/s
Frame rate : 0.180 FPS
Count of elements : 1407
Stream size : 115 KiB (0%)
Language : Tamil
Default : No
Forced : No

Text #34
ID : 36
Format : UTF-8
Codec ID : S_TEXT/UTF8
Codec ID/Info : UTF-8 Plain Text
Duration : 2 h 10 min
Bit rate : 105 b/s
Frame rate : 0.180 FPS
Count of elements : 1407
Stream size : 100 KiB (0%)
Language : Telugu (IN)
Default : No
Forced : No

Text #35
ID : 37
Format : UTF-8
Codec ID : S_TEXT/UTF8
Codec ID/Info : UTF-8 Plain Text
Duration : 2 h 10 min
Bit rate : 98 b/s
Frame rate : 0.178 FPS
Count of elements : 1391
Stream size : 93.7 KiB (0%)
Language : Thai
Default : No
Forced : No

Text #36
ID : 38
Format : UTF-8
Codec ID : S_TEXT/UTF8
Codec ID/Info : UTF-8 Plain Text
Duration : 2 h 10 min
Bit rate : 44 b/s
Frame rate : 0.174 FPS
Count of elements : 1361
Stream size : 42.3 KiB (0%)
Language : Turkish
Default : No
Forced : No

Text #37
ID : 39
Format : UTF-8
Codec ID : S_TEXT/UTF8
Codec ID/Info : UTF-8 Plain Text
Duration : 2 h 10 min
Bit rate : 74 b/s
Frame rate : 0.204 FPS
Count of elements : 1592
Stream size : 71.1 KiB (0%)
Language : Ukrainian
Default : No
Forced : No

Text #38
ID : 40
Format : UTF-8
Codec ID : S_TEXT/UTF8
Codec ID/Info : UTF-8 Plain Text
Duration : 2 h 10 min
Bit rate : 50 b/s
Frame rate : 0.177 FPS
Count of elements : 1382
Stream size : 48.5 KiB (0%)
Language : Vietnamese
Default : No
Forced : No

Text #39
ID : 41
Format : UTF-8
Codec ID : S_TEXT/UTF8
Codec ID/Info : UTF-8 Plain Text
Duration : 2 h 10 min
Bit rate : 35 b/s
Frame rate : 0.180 FPS
Count of elements : 1408
Stream size : 33.6 KiB (0%)
Title : Traditional
Language : Cantonese (Hant)
Default : No
Forced : No

[collapse]
Download Link(s)

Download

Direct download files get automatically deleted after a month or so. Posted on : 05/18/2024

[collapse]

Magnet Link

Magnet

Challengers.2024.1080p.AMZN.WEB-DL.DDP5.1.Atmos.H.264-FLUX-9.43 GB

[collapse]

You may also like...

error: nah :p~