Chak De! India (2007)

2h 33min | Drama, Family, Sport

Kabir Khan, the coach of the Indian Women’s National Hockey Team, dreams of making his all-girls team emerge victorious against all odds.

Watch trailer

Media information

General
Format : Matroska
Format version : Version 4
File size : 2.24 GiB
Duration : 2 h 28 min
Overall bit rate : 2 151 kb/s
Movie name : Chak.de.India.2007.1080p.10bit.BluRay.6CH.x265.HEVC

Video
ID : 1
Format : HEVC
Format/Info : High Efficiency Video Coding
Format profile : Main [email protected]@Main
Codec ID : V_MPEGH/ISO/HEVC
Duration : 2 h 28 min
Bit rate : 1 835 kb/s
Width : 1 920 pixels
Height : 816 pixels
Display aspect ratio : 2.35:1
Frame rate mode : Constant
Frame rate : 24.000 FPS
Color space : YUV
Chroma subsampling : 4:2:0 (Type 0)
Bit depth : 10 bits
Bits/(Pixel*Frame) : 0.049
Stream size : 1.91 GiB (85%)
Default : Yes
Forced : No
Color range : Limited
Color primaries : BT.709
Transfer characteristics : BT.709
Matrix coefficients : BT.709

Audio
ID : 2
Format : AAC LC
Codec ID : A_AAC-2
Duration : 2 h 28 min
Bit rate : 288 kb/s
Channel(s) : 6 channels
Channel layout : C L R Ls Rs LFE
Sampling rate : 48.0 kHz
Frame rate : 46.875 FPS (1024 SPF)
Compression mode : Lossy
Stream size : 307 MiB (13%)
Language : Hindi
Default : Yes
Forced : No

Text #1
ID : 3
Format : PGS
Muxing mode : zlib
Codec ID : S_HDMV/PGS
Duration : 2 h 27 min
Bit rate : 27.2 kb/s
Count of elements : 3232
Stream size : 28.7 MiB (1%)
Language : English
Default : Yes
Forced : No

Text #2
ID : 4
Format : PGS
Muxing mode : zlib
Codec ID : S_HDMV/PGS
Duration : 2 h 27 min
Bit rate : 12.8 kb/s
Count of elements : 3230
Stream size : 13.5 MiB (1%)
Language : Arabic
Default : No
Forced : No

Text #3
ID : 5
Format : PGS
Muxing mode : zlib
Codec ID : S_HDMV/PGS
Duration : 2 h 27 min
Bit rate : 42.4 kb/s
Count of elements : 3232
Stream size : 44.6 MiB (2%)
Language : Tamil
Default : No
Forced : No

Text #4
ID : 6
Format : PGS
Muxing mode : zlib
Codec ID : S_HDMV/PGS
Duration : 2 h 27 min
Bit rate : 22.5 kb/s
Count of elements : 3240
Stream size : 23.7 MiB (1%)
Language : Telugu
Default : No
Forced : No

[collapse]
Download Link(s)

Download

Direct download files get automatically deleted after a month or so. Posted on : 07/28/2021

[collapse]
Magnet Link

Magnet

Chak.de.India.2007.1080p.BluRay.x265.HEVC.10bit.AAC.5.1.Hindi.Natty-4.9 GB

[collapse]

Media information

General
Format : Matroska
Format version : Version 4
File size : 1.18 GiB
Duration : 2 h 28 min
Overall bit rate : 1 132 kb/s
Movie name : Chak.de.India.2007.720p.10bit.BluRay.6CH.x265.HEVC

Video
ID : 1
Format : HEVC
Format/Info : High Efficiency Video Coding
Format profile : Main [email protected]@Main
Codec ID : V_MPEGH/ISO/HEVC
Duration : 2 h 28 min
Bit rate : 912 kb/s
Width : 1 280 pixels
Height : 544 pixels
Display aspect ratio : 2.35:1
Frame rate mode : Constant
Frame rate : 24.000 FPS
Color space : YUV
Chroma subsampling : 4:2:0 (Type 0)
Bit depth : 10 bits
Bits/(Pixel*Frame) : 0.055
Stream size : 971 MiB (81%)
Default : Yes
Forced : No
Color range : Limited
Color primaries : BT.709
Transfer characteristics : BT.709
Matrix coefficients : BT.709

Audio
ID : 2
Format : AAC LC
Codec ID : A_AAC-2
Duration : 2 h 28 min
Bit rate : 192 kb/s
Channel(s) : 6 channels
Channel layout : C L R Ls Rs LFE
Sampling rate : 48.0 kHz
Frame rate : 46.875 FPS (1024 SPF)
Compression mode : Lossy
Stream size : 205 MiB (17%)
Language : Hindi
Default : Yes
Forced : No

Text #1
ID : 3
Format : PGS
Muxing mode : zlib
Codec ID : S_HDMV/PGS
Duration : 2 h 27 min
Bit rate : 27.2 kb/s
Count of elements : 3232
Stream size : 28.7 MiB (2%)
Language : English
Default : Yes
Forced : No

Text #2
ID : 4
Format : PGS
Muxing mode : zlib
Codec ID : S_HDMV/PGS
Duration : 2 h 27 min
Bit rate : 12.8 kb/s
Count of elements : 3230
Stream size : 13.5 MiB (1%)
Language : Arabic
Default : No
Forced : No

Text #3
ID : 5
Format : PGS
Muxing mode : zlib
Codec ID : S_HDMV/PGS
Duration : 2 h 27 min
Bit rate : 42.4 kb/s
Count of elements : 3232
Stream size : 44.6 MiB (4%)
Language : Tamil
Default : No
Forced : No

Text #4
ID : 6
Format : PGS
Muxing mode : zlib
Codec ID : S_HDMV/PGS
Duration : 2 h 27 min
Bit rate : 22.5 kb/s
Count of elements : 3240
Stream size : 23.7 MiB (2%)
Language : Telugu
Default : No
Forced : No

[collapse]
Download Link(s)

Download

Direct download files get automatically deleted after a month or so. Posted on : 07/28/2021

[collapse]
Magnet Link

Magnet

Chak.de.India.2007.1080p.BluRay.x265.HEVC.10bit.AAC.5.1.Hindi.Natty-4.9 GB

[collapse]

You may also like...

error: nah :p~